Скачать через торрент Серебряная ложка Gin no Saji бесплатно Аниме Все серии на русском torrent

Если у вас наблюдаются проблемы со скриншотами, переходом по ссылками, скачиванием торрентов - проблемы в блокировщике рекламы AdBlock. #хорошегоДня!


Статистика раздачи
Размер:  3.63 GB   |    Зарегистрирован:  3 года 7 месяцев   |    .torrent скачан:  9 раз   |   
Раздают:  1  
   
Загрузка...
 
Автор Сообщение

Polarnik

avatar Polarnik



Страна:
Год выпуска: 2013
Жанр: комедия, повседневность
Тип: ТВ-1
Продолжительность: >11 эп. 24 мин.
Выпуск: c 12.07.2013 по 20.09.2013
Трансляция: в 00:45 [ночной сеанс] на Fuji TV
Студия: A-1 Pictures Inc.
Режиссёр: Ито Томохико
Снято по манге: Gin no Saji
Автор оригинала: Аракава Хирому
Перевод:

Субтитры: (внешние)

русские субтитры от Харитон Харько
перевод и оформление Харитон Харько
русские субтитры от Shojosei & Eternal HARO & A.B.K.
Перевод: Kasandra | Редактура: sys3x (1-2 серии), A.B.K. | QC: Libra (1 серия), A.B.K. (2 серия), sys3x (3 серия и далее) | Сверка с японским: Xellos Slayer



Озвучка: (внешним файлом)

Любительская трехголосная от Cuba77 & Trouble & Trina_D [1-10] - Sample || Cuba77 & BalFor & Trina_D [11]
Описание:Хачикен Юго — городской житель и выпускник элитной частной академии в Саппоро. Но вместо того, чтобы завершить обучение в престижной старшей школе, он поступает в сельскохозяйственную школу, расположенную на Хоккайдо. Поселившись в общежитии, он надеялся с лёгкостью обойти своих не столь продвинутых однокурсников. Однако эта школа оказалась совсем не такой, как он ожидал. В первую очередь здесь ценятся не знания, а умение работать руками, да и все остальные студенты, выросшие в деревне, обладают куда большими познаниями в области земледелия и животноводства. Более того, в школе отсутствуют гуманитарные кружки, и даже наш далёкий от физкультуры герой вынужден вступить в спортивную секцию.

Среди своих однокурсников, которые с детства были приучены к жизни на ферме, Хачикен Юго, не имеющий никакого отношения к сельскому хозяйству, смотрится совершенно не к месту. И его однокурсникам кажется странным, что он поступил именно в Эзо, где каждый день приходится вставать в пять утра и выполнять тяжёлую работу. Но о самом себе Юго говорит мало и неохотно. На вопрос, почему он решил поступить именно в Эзо, тот отвечает, что из-за комнаты в общежитии. Но всё не так просто, как кажется.
Информационные ссылки: ANN || AniDB || MAL || World-Art
Эта серия состоит из:
#1 Серебряная ложка [ТВ-1] - ТВ (>11 эп.), адаптация манги, 2013
#2 Серебряная ложка [ТВ-2] - ТВ, продолжение, 2014

01. Welcome to Ezoono
02. Hachiken Rides a Horse
03. Hachiken Meets Pork-Bowl
04. Hachiken Bakes Pizza
05. Hachiken Runs Off
06. Hachiken Goes to Stay with the Mikages
07. Hachiken Goes to Giga Farm
08. Hachiken Makes a Huge Mistake
09. Hachiken Hesitates over Pork Bowl
10. Hachiken Says Goodbye to Pork Bowl
11. Take Off Running, Hachiken
GeneralComplete name : I:\мой мусор\Онгоинги\Gin no saji\Gin no Saji - 01.mp4Format : MPEG-4Format profile : Base MediaCodec ID : isomFile size : 346 MiBDuration : 23mn 0sOverall bit rate : 2 106 KbpsEncoded date : UTC 2013-07-12 18:34:41Tagged date : UTC 2013-07-12 18:34:41

VideoID : 1Format : AVCFormat/Info : Advanced Video CodecFormat profile : High@L4.1Format settings, CABAC : YesFormat settings, ReFrames : 4 framesCodec ID : avc1Codec ID/Info : Advanced Video CodingDuration : 22mn 59sBit rate mode : VariableBit rate : 1 910 KbpsMaximum bit rate : 13.4 MbpsWidth : 1 280 pixelsHeight : 720 pixelsDisplay aspect ratio : 16:9Frame rate mode : ConstantFrame rate : 23.976 fpsColor space : YUVChroma subsampling : 4:2:0Bit depth : 8 bitsScan type : ProgressiveBits/(Pixel*Frame) : 0.086Stream size : 314 MiB (91%)Title : 264:fps=23.976@GPAC0.5.1-DEV-rev4283Writing library : x264 core 125 r2200+677M 3a754e7Encoding settings : cabac=1 / ref=4 / deblock=1:1:-1 / analyse=0x3:0x113 / me=umh / subme=9 / psy=1 / fade_compensate=0.00 / psy_rd=1.00:0.00 / mixed_ref=1 / me_range=24 / chroma_me=1 / trellis=2 / 8x8dct=1 / cqm=0 / deadzone=21,11 / fast_pskip=1 / chroma_qp_offset=-2 / threads=8 / lookahead_threads=1 / sliced_threads=0 / nr=0 / decimate=1 / interlaced=0 / bluray_compat=0 / constrained_intra=0 / fgo=0 / bframes=9 / b_pyramid=2 / b_adapt=2 / b_bias=0 / direct=1 / weightb=1 / open_gop=0 / weightp=2 / keyint=240 / keyint_min=24 / scenecut=40 / intra_refresh=0 / rc=crf / mbtree=0 / crf=19.0000 / qcomp=0.72 / qpmin=0 / qpmax=69 / qpstep=4 / ip_ratio=1.40 / pb_ratio=1.30 / aq=1:0.85Encoded date : UTC 2013-07-12 18:34:41Tagged date : UTC 2013-07-12 18:35:00Color primaries : BT.709-5, BT.1361, IEC 61966-2-4, SMPTE RP177Transfer characteristics : BT.709-5, BT.1361Matrix coefficients : BT.709-5, BT.1361, IEC 61966-2-4 709, SMPTE RP177

AudioID : 2Format : AACFormat/Info : Advanced Audio CodecFormat profile : LCCodec ID : 40Duration : 23mn 0sBit rate mode : VariableBit rate : 192 KbpsMaximum bit rate : 227 KbpsChannel(s) : 2 channelsChannel positions : Front: L RSampling rate : 48.0 KHzCompression mode : LossyStream size : 31.6 MiB (9%)Language : JapaneseEncoded date : UTC 2013-07-12 15:08:28Tagged date : UTC 2013-07-12 18:35:00

Качество: HDTVRip [Leopard-Raws] | Формат: mр4 | Тип видео: без хардсаба
Видео:
H.264; 1280 x 720 | 23.976 fps | ~2 000 Kbps | 8 bits
Аудио:
JAP: AАС; 48.0 khz | 2.0ch | 192 kbps
RUS: ААС: 48.0 khz | 2.0ch | 192 kbps |Cuba77 & Trouble & Trina_D|





Трекер:  [ 09-Фев-2014 14:17 ]

  

Скачать .torrent

Размер .torrent файла 22 KB


Размер: 3.63 GB
Хэш (hash) релиза: 6ab0f406ac99899c57efc9b8ae62a10b70c13092
Подписка на обновления:

Торренты, похожие на Серебряная ложка Gin no Saji скачать торрент

Форум Название Автор Размер S L Добавлен
Аниме | HD Rips ·· Серебряная ложка (ТВ-2) / Silver Spoon / Gin no Saji (Дэай Сатоми) [TV] [Без хардсаба] [01-05 из 11] [JAP+SUB] & [01-04 из 11] [RUS(ext)] [2014 г., комедия, повседневность, WEBRip] [1080p] Polarnik 28762503602.68 GB 0 0 1392465135

14:52

15-Фев-14

Аниме | HD Rips ·· Серебряная ложка (ТВ-2) / Gin no Saji (Дэай Сатоми) [TV] [без хардсаба] [5 из >11] [JAP+SUB] [2014 г., комедия, повседневность, WEBRip] [720p] Polarnik 14232926811.33 GB 0 0 1391943620

14:00

9-Фев-14

Аниме | HD Rips ·· Серебряная ложка (ТВ-1) / Silver Spoon / Gin no Saji (Ито Томохико) [TV] [7 из 11] [без хардсаба] [RUS(ext), JAP+SUB] [2013 г., комедия, повседневность, BDRip] [1080p] Polarnik 1101099796110.25 GB 0 0 1382798945

17:49

26-Окт-13

Манга ·· Аракава Хирому / Arakawa Hiromu - Серебряная Ложка / Silver Spoon / Gin no Saji [manga] [главы 1-25, 39-41] [2011 г., комедия, школа, романтика, повседневность, сёнэн] [incomplete] Polarnik 210736193201 MB 0 0 1382539164

17:39

23-Окт-13

Аниме | HD Rips ·· Серебряная ложка (ТВ-1) / Silver Spoon / Gin no Saji (Ито Томохико) [TV] [11 из 11] [без хардсаба] [RUS(ext), JAP+SUB] [2013 г., комедия, повседневность, WEBRip] [1080p] Polarnik 64012105135.96 GB 0 0 1379709080

23:31

20-Сен-13

Аниме | HD Rips ·· Серебряная ложка (ТВ-1) / Silver Spoon / Gin no Saji [TV] [11 из 11] [без хардсаба] [RUS(ext), JAP+SUB] [2013 г., комедия, повседневность, HDTVRip] [720p] Polarnik 33946301713.16 GB 0 0 1379536366

23:32

18-Сен-13

Аниме | HD Rips ·· Серебряная ложка (ТВ-1) / Silver Spoon / Gin no Saji (Ито Томохико) [TV] [9 из 11] [без хардсаба] [RUS(ext), JAP+SUB] [2013 г., комедия, повседневность, HDTVRip] [1080p] Polarnik 52394286554.88 GB 0 0 1378911596

17:59

11-Сен-13

Манга ·· Hiromu Arakawa - Серебряная Ложка / Silver Spoon / Gin no Saji [manga] [Главы 1-7] [2011 г., сёнэн, комедия, повседневность] [incomplete] Umakiro 3301015631 MB 0 0 1336844940

20:49

12-Май-12

Еще никто не оставлял запись к записи скачать торрент Серебряная ложка Gin no Saji . Будь первым!

!Обратная связь