Скачать через торрент XXII Зимние Олимпийские Игры 2014. Горнолыжный спорт. Скоростной спуск. Мужчины Россия 2 Фильм бесплатно в хорошем качестве torrent

Скачивайте на UnionPeer.org фильмы через торрент без регистрации. Новинки кино в хорошем качестве через торрент. На UnionPeer.org можно скачать через торрент фильмы 2014 и 2015 годов. Самые новые фильмы.

Скачать торрент XXII Зимние Олимпийские Игры 2014. Горнолыжный спорт. Скоростной спуск. Мужчины Россия 2 бесплатно через .torrent фильм мультфильм сериал

Если у вас наблюдаются проблемы со скриншотами, переходом по ссылками, скачиванием торрентов - проблемы в блокировщике рекламы AdBlock. #хорошегоДня!


Статистика раздачи
Размер:  1.59 GB   |    Зарегистрирован:  3 года 7 месяцев   |    .torrent скачан:  33 раза   |   
Раздают:  1  
   
Загрузка...
 
Автор Сообщение

Galfimbul

avatar Galfimbul


XXII Зимние Олимпийские Игры 2014. Горнолыжный спорт. Скоростной спуск. Мужчины

Вид спорта: Горнолыжный спорт
Комментарий: Профессиональный
Язык комментариев: Русский (Тарас Тимошенко)
Описание: XXII Зимние Олимпийские Игры 2014. Горнолыжный спорт. Скоростной спуск. Мужчины
Автор рипа: sanchez2011
Качество: SATRip
Формат: AVI
Видео кодек: XviD
Аудио кодек: MP3
Видео: MPEG-4 Visual (H263) 720x448 (16:10) 25.00fps 1700kbps
Аудио: MPEG Audio Layer 3 48000Hz stereo 128kbps
Все результаты соревнований

Продолжительность: 02:04:20
GeneralComplete name : E:\Олимпиада 2014\XXII Зимние Олимпийские Игры 2014. 09.02.2014 Горнолыжный спорт. Скоростной спуск. Мужчины.aviFormat : AVIFormat/Info : Audio Video InterleaveFile size : 1.59 GiBDuration : 2h 4mnOverall bit rate : 1 832 KbpsWriting application : VirtualDubMod 1.5.10.2 (build 2540/release)Writing library : VirtualDubMod build 2540/release

VideoID : 0Format : MPEG-4 VisualFormat profile : Advanced Simple@L5Format settings, BVOP : 2Format settings, QPel : NoFormat settings, GMC : No warppointsFormat settings, Matrix : Default (H.263)Codec ID : XVIDCodec ID/Hint : XviDDuration : 2h 4mnBit rate : 1 694 KbpsWidth : 720 pixelsHeight : 448 pixelsDisplay aspect ratio : 16:10Frame rate : 25.000 fpsColor space : YUVChroma subsampling : 4:2:0Bit depth : 8 bitsScan type : ProgressiveCompression mode : LossyBits/(Pixel*Frame) : 0.210Stream size : 1.47 GiB (92%)Writing library : XviD 64

AudioID : 1Format : MPEG AudioFormat version : Version 1Format profile : Layer 3Mode : Joint stereoMode extension : MS StereoCodec ID : 55Codec ID/Hint : MP3Duration : 2h 4mnBit rate mode : ConstantBit rate : 128 KbpsChannel(s) : 2 channelsSampling rate : 48.0 KHzCompression mode : LossyStream size : 114 MiB (7%)Alignment : Aligned on interleavesInterleave, duration : 40 ms (1.00 video frame)Interleave, preload duration : 504 msWriting library : LAME3.100


Трекер:  [ 09-Фев-2014 13:13 ]

  

Скачать .torrent

Размер .torrent файла 16 KB


Размер: 1.59 GB
Хэш (hash) релиза: a2ca7937ebb6570709bc45cb8fa028b263c8cb37
Подписка на обновления:

Торренты, похожие на XXII Зимние Олимпийские Игры 2014. Горнолыжный спорт. Скоростной спуск. Мужчины Россия 2 скачать торрент

Форум Название Автор Размер S L Добавлен
Зимние Олимпийские игры в Сочи 2014 ·· XXII Зимние Олимпийские Игры 2014. Горнолыжный спорт. Суперкомбинация. Скоростной спуск. Мужчины / Россия 2 [14.02.2014 г., Горнолыжный спорт, DVB, AVC] Galfimbul 18992395441.77 GB 0 0 1392382252

15:50

14-Фев-14

Еще никто не оставлял запись к записи скачать торрент XXII Зимние Олимпийские Игры 2014. Горнолыжный спорт. Скоростной спуск. Мужчины Россия 2 . Будь первым!

!Обратная связь