Скачать через торрент музыку Wu-Tang Clan - Soundtracks From The Shaolin Temple Храм Шаолинь - 2008, FLAC бесплатно без регистрации torrent

Если у вас наблюдаются проблемы со скриншотами, переходом по ссылками, скачиванием торрентов - проблемы в блокировщике рекламы AdBlock. #хорошегоДня!


Статистика раздачи
Размер:  475 MB   |    Зарегистрирован:  6 лет 7 месяцев   |    .torrent скачан:  58 раз   |   
Раздают:  1  
   
Загрузка...
 
Автор Сообщение

Комедиант

avatar Комедиант


Wu-Tang Clan - Soundtracks From The Shaolin Temple

Жанр: Soundtrack, Hip-Hop
Год выпуска диска: 2008
Производитель диска: USA
Аудио кодек: FLAC
Тип рипа: tracks+.cue
Битрейт аудио: lossless
Продолжительность: 01:19:25

Трэклист
01. Darkness (Intro) (1:34)
02. Killa Bee Swarm (4:15)
03. Lyrical Swords (3:27)
04. More Than Gold (4:12)
05. On the Eve of War [Julio Caesar Chavez Mix] 4:02
06. Iconoclasts (4:53)
07. My Piano 4:09
08. Biochemical Equation (3:58)
09. Pencil (3:59)
10. Josephine (4:11)
11. Obituary (E.B.G.G.) (4:15)
12. Chi (Interlude) (0:34)
13. Deep Space (4:28)
14. Alphabets (2:44)
15. Original Man (5:33)
16. Bronzeman (3:52)
17. God's Creatures (Interlude) (2:00)
18. Animal (3:49)
19. Still Grimey (4:18)
20. Ocean (3:41)
21. Street Corners [Fam Members Only RMX] (5:24)
 
Exact Audio Copy V0.99 prebeta 4 from 23. January 2008

EAC extraction logfile from 4. November 2008, 15:46

Wu-Tang / Soundtracks From The Shaolin Temple

Used drive : TEAC DV-W518GM Adapter: 1 ID: 0

Read mode : SecureUtilize accurate stream : YesDefeat audio cache : YesMake use of C2 pointers : No

Read offset correction : 6Overread into Lead-In and Lead-Out : NoFill up missing offset samples with silence : YesDelete leading and trailing silent blocks : NoNull samples used in CRC calculations : YesUsed interface : Native Win32 interface for Win NT & 2000Gap handling : Not detected, thus appended to previous track

Used output format : User Defined EncoderSelected bitrate : 768 kBit/sQuality : HighAdd ID3 tag : NoCommand line compressor : C:\Program Files\Exact Audio Copy\FLAC\FLAC.EXEAdditional command line options : -V -8 -T "artist=%a" -T "title=%t" -T "album=%g" -T "date=%y" -T "tracknumber=%n" -T "genre=%m" %s

TOC of the extracted CD

Track | Start | Length | Start sector | End sector --------------------------------------------------------- 1 | 0:00.00 | 1:34.47 | 0 | 7096 2 | 1:34.47 | 4:15.01 | 7097 | 26222 3 | 5:49.48 | 3:27.67 | 26223 | 41814 4 | 9:17.40 | 4:12.32 | 41815 | 60746 5 | 13:29.72 | 4:02.15 | 60747 | 78911 6 | 17:32.12 | 4:53.51 | 78912 | 100937 7 | 22:25.63 | 4:09.26 | 100938 | 119638 8 | 26:35.14 | 3:58.47 | 119639 | 137535 9 | 30:33.61 | 3:59.73 | 137536 | 155533 10 | 34:33.59 | 4:11.64 | 155534 | 174422 11 | 38:45.48 | 4:15.02 | 174423 | 193549 12 | 43:00.50 | 0:34.33 | 193550 | 196132 13 | 43:35.08 | 4:28.22 | 196133 | 216254 14 | 48:03.30 | 2:44.32 | 216255 | 228586 15 | 50:47.62 | 5:33.46 | 228587 | 253607 16 | 56:21.33 | 3:52.52 | 253608 | 271059 17 | 60:14.10 | 2:00.07 | 271060 | 280066 18 | 62:14.17 | 3:49.17 | 280067 | 297258 19 | 66:03.34 | 4:18.03 | 297259 | 316611 20 | 70:21.37 | 3:41.13 | 316612 | 333199 21 | 74:02.50 | 5:24.74 | 333200 | 357573

Track 1

Filename C:\Uploads\VA Wu-Tang (2008) Soundtracks From The Shaolin Temple\01. Darkness (Intro).wav

Peak level 73.4 % Track quality 99.8 % Copy CRC CB8EF124 Track not present in AccurateRip database Copy OK

Track 2

Filename C:\Uploads\VA Wu-Tang (2008) Soundtracks From The Shaolin Temple\02. Killa Bee Swarm.wav

Peak level 100.0 % Track quality 99.9 % Copy CRC 271BB3E0 Track not present in AccurateRip database Copy OK

Track 3

Filename C:\Uploads\VA Wu-Tang (2008) Soundtracks From The Shaolin Temple\03. Lyrical Swords.wav

Peak level 100.0 % Track quality 99.9 % Copy CRC 0E621619 Track not present in AccurateRip database Copy OK

Track 4

Filename C:\Uploads\VA Wu-Tang (2008) Soundtracks From The Shaolin Temple\04. More Than Gold.wav

Peak level 100.0 % Track quality 100.0 % Copy CRC 26972390 Track not present in AccurateRip database Copy OK

Track 5

Filename C:\Uploads\VA Wu-Tang (2008) Soundtracks From The Shaolin Temple\05. On The Eve Of War (Julio Caesar Chavez Mix).wav

Peak level 100.0 % Track quality 100.0 % Copy CRC 1D3A6C4A Track not present in AccurateRip database Copy OK

Track 6

Filename C:\Uploads\VA Wu-Tang (2008) Soundtracks From The Shaolin Temple\06. Iconclasts.wav

Peak level 98.8 % Track quality 100.0 % Copy CRC 7FEC9A55 Track not present in AccurateRip database Copy OK

Track 7

Filename C:\Uploads\VA Wu-Tang (2008) Soundtracks From The Shaolin Temple\07. My Piano.wav

Peak level 90.1 % Track quality 100.0 % Copy CRC E2453DDE Track not present in AccurateRip database Copy OK

Track 8

Filename C:\Uploads\VA Wu-Tang (2008) Soundtracks From The Shaolin Temple\08. Biochemical Equation.wav

Peak level 100.0 % Track quality 100.0 % Copy CRC 302C34AC Track not present in AccurateRip database Copy OK

Track 9

Filename C:\Uploads\VA Wu-Tang (2008) Soundtracks From The Shaolin Temple\09. Pencil.wav

Peak level 99.7 % Track quality 100.0 % Copy CRC 557BA3B2 Track not present in AccurateRip database Copy OK

Track 10

Filename C:\Uploads\VA Wu-Tang (2008) Soundtracks From The Shaolin Temple\10. Josephine.wav

Peak level 100.0 % Track quality 100.0 % Copy CRC 40973205 Track not present in AccurateRip database Copy OK

Track 11

Filename C:\Uploads\VA Wu-Tang (2008) Soundtracks From The Shaolin Temple\11. The Obituary (E.B.G.G.).wav

Peak level 100.0 % Track quality 99.9 % Copy CRC BB90C584 Track not present in AccurateRip database Copy OK

Track 12

Filename C:\Uploads\VA Wu-Tang (2008) Soundtracks From The Shaolin Temple\12. Chi (Interlude).wav

Peak level 71.0 % Track quality 100.0 % Copy CRC 8AB2DDCC Track not present in AccurateRip database Copy OK

Track 13

Filename C:\Uploads\VA Wu-Tang (2008) Soundtracks From The Shaolin Temple\13. Deep Space.wav

Peak level 98.8 % Track quality 99.9 % Copy CRC B3227390 Track not present in AccurateRip database Copy OK

Track 14

Filename C:\Uploads\VA Wu-Tang (2008) Soundtracks From The Shaolin Temple\14. Alphabets.wav

Peak level 98.8 % Track quality 100.0 % Copy CRC F906401C Track not present in AccurateRip database Copy OK

Track 15

Filename C:\Uploads\VA Wu-Tang (2008) Soundtracks From The Shaolin Temple\15. Original Man.wav

Peak level 89.1 % Track quality 100.0 % Copy CRC 65D50CA8 Track not present in AccurateRip database Copy OK

Track 16

Filename C:\Uploads\VA Wu-Tang (2008) Soundtracks From The Shaolin Temple\16. The Bronzeman.wav

Peak level 100.0 % Track quality 100.0 % Copy CRC 6160823C Track not present in AccurateRip database Copy OK

Track 17

Filename C:\Uploads\VA Wu-Tang (2008) Soundtracks From The Shaolin Temple\17. God's Creatures (Interlude).wav

Peak level 74.8 % Track quality 100.0 % Copy CRC AE4A5C7B Track not present in AccurateRip database Copy OK

Track 18

Filename C:\Uploads\VA Wu-Tang (2008) Soundtracks From The Shaolin Temple\18. Animal.wav

Peak level 96.6 % Track quality 100.0 % Copy CRC F67E0FD5 Track not present in AccurateRip database Copy OK

Track 19

Filename C:\Uploads\VA Wu-Tang (2008) Soundtracks From The Shaolin Temple\19. Still Grimey.wav

Peak level 100.0 % Track quality 100.0 % Copy CRC 2D4448A0 Track not present in AccurateRip database Copy OK

Track 20

Filename C:\Uploads\VA Wu-Tang (2008) Soundtracks From The Shaolin Temple\20. The Ocean.wav

Peak level 98.8 % Track quality 99.9 % Copy CRC 23B6A023 Track not present in AccurateRip database Copy OK

Track 21

Filename C:\Uploads\VA Wu-Tang (2008) Soundtracks From The Shaolin Temple\21. Street Corners (Fam Members Only Rmx).wav

Peak level 100.0 % Track quality 100.0 % Copy CRC B8AC8D95 Track not present in AccurateRip database Copy OK

None of the tracks are present in the AccurateRip database

No errors occurred

End of status report


Трекер:  [ 08-Фев-2011 11:33 ]

  

Скачать .torrent

Размер .torrent файла 4 KB


Размер: 475 MB
Хэш (hash) релиза: 4dbee41fcbce08bb91d7e0bef040bffc71ed7415

Еще никто не оставлял запись к записи скачать торрент Wu-Tang Clan - Soundtracks From The Shaolin Temple Храм Шаолинь - 2008, FLAC . Будь первым!

!Обратная связь