Скачать через торрент ХХII Зимние Олимпийские Игры 2014 Санный спорт Фильм бесплатно в хорошем качестве torrent

Скачивайте на UnionPeer.org фильмы через торрент без регистрации. Новинки кино в хорошем качестве через торрент. На UnionPeer.org можно скачать через торрент фильмы 2014 и 2015 годов. Самые новые фильмы.

Скачать торрент ХХII Зимние Олимпийские Игры 2014 Санный спорт бесплатно через .torrent фильм мультфильм сериал

Если у вас наблюдаются проблемы со скриншотами, переходом по ссылками, скачиванием торрентов - проблемы в блокировщике рекламы AdBlock. #хорошегоДня!


Статистика раздачи
Размер:  4.28 GB   |    Зарегистрирован:  3 года 8 месяцев   |    .torrent скачан:  38 раз   |   
Раздают:  1  
   
Загрузка...
 
Автор Сообщение

Galfimbul

avatar Galfimbul


ХХII Зимние Олимпийские Игры 2014 / Санный спорт / Мужчины / 1-я и 2-я попытка / ORF 1 HD

Вид спорта: Санный спорт
Дата/Год выпуска: 08.02.14
Язык комментариев: немецкий

Автор записи: SashaR.

Дополнительная информация: Обзор первых двух попыток

Качество: DVB-S2 Remux
Формат видео: TS
Видео: AVC, 1280x720, 16:9, 10.3 Mbps, 50 fps
Аудио: MP2, 160 kbps, 48 kHz, 2 channels
Аудио: MP2, 160 kbps, 48 kHz, 2 channels
Аудио: AC-3, 448 Kbps, 48 kHz, 6 channels
J:\Олимпиада\Санный спорт. Мужчины - Одиночники. ORF 1 HD\Санки. Мужчины. 1-я попытка.ts
General #1007
ID : 1007 (0x3EF)
Complete name : J:\Олимпиада\Санный спорт. Мужчины - Одиночники. ORF 1 HD\Санки. Мужчины. 1-я попытка.ts
Format : MPEG-TS
File size : 2.03 GiB
Duration : 24mn 49s
Overall bit rate mode : Variable
Overall bit rate : 11.7 Mbps
Video #1920
ID : 1920 (0x780)
Menu ID : 4911 (0x132F)
Format : AVC
Format/Info : Advanced Video Codec
Format profile : High@L4.0
Format settings, CABAC : Yes
Format settings, ReFrames : 4 frames
Format settings, GOP : M=4, N=32
Codec ID : 27
Duration : 24mn 49s
Bit rate : 10.3 Mbps
Width : 1 280 pixels
Height : 720 pixels
Display aspect ratio : 16:9
Frame rate : 50.000 fps
Color space : YUV
Chroma subsampling : 4:2:0
Bit depth : 8 bits
Scan type : Progressive
Bits/(Pixel*Frame) : 0.225
Stream size : 1.79 GiB (88%)
Audio #1921
ID : 1921 (0x781)
Menu ID : 4911 (0x132F)
Format : MPEG Audio
Format version : Version 1
Format profile : Layer 2
Mode : Joint stereo
Codec ID : 4
Duration : 24mn 49s
Bit rate mode : Constant
Bit rate : 160 Kbps
Channel count : 2 channels
Sampling rate : 48.0 KHz
Compression mode : Lossy
Delay relative to video : 48ms
Stream size : 28.4 MiB (1%)
Language : German
Language, more info : Clean effects
Audio #1922
ID : 1922 (0x782)
Menu ID : 4911 (0x132F)
Format : MPEG Audio
Format version : Version 1
Format profile : Layer 2
Mode : Joint stereo
Codec ID : 4
Duration : 24mn 49s
Bit rate mode : Constant
Bit rate : 160 Kbps
Channel count : 2 channels
Sampling rate : 48.0 KHz
Compression mode : Lossy
Delay relative to video : 48ms
Stream size : 28.4 MiB (1%)
Language : English
Language, more info : Clean effects
Audio #1923
ID : 1923 (0x783)
Menu ID : 4911 (0x132F)
Format : AC-3
Format/Info : Audio Coding 3
Mode extension : CM (complete main)
Format settings, Endianness : Big
Codec ID : 6
Duration : 24mn 49s
Bit rate mode : Constant
Bit rate : 448 Kbps
Channel count : 6 channels
Channel positions : Front: L C R, Side: L R, LFE
Sampling rate : 48.0 KHz
Bit depth : 16 bits
Compression mode : Lossy
Delay relative to video : 29ms
Stream size : 79.5 MiB (4%)
Language : German
Language, more info : Clean effects
1-я попытка - 00:24:49
2-я попытка - 00:26:03


Трекер:  [ 09-Фев-2014 04:12 ]

  

Скачать .torrent

Размер .torrent файла 86 KB


Размер: 4.28 GB
Хэш (hash) релиза: 462478457fbf311f6a9f87d3b95de08e70bf3305
Подписка на обновления:

Еще никто не оставлял запись к записи скачать торрент ХХII Зимние Олимпийские Игры 2014 Санный спорт . Будь первым!

!Обратная связь