Скачать порно через торрент Kichiku: Haha Shimai Choukyou Nikki Выродок: ~Дневник дрессировки сестер с матерью~ UnionPeer.org бесплатно онлайн HD качество

Скачать новое порно 2015, 2014 новинки через торрент UnionPeer.org

Порно торрент бесплатно ЮнионПир.орг

Если у вас наблюдаются проблемы со скриншотами, переходом по ссылками, скачиванием торрентов - проблемы в блокировщике рекламы AdBlock. #хорошегоДня!


Статистика раздачи
Размер:  161 MB   |    Зарегистрирован:  3 года 6 месяцев   |    .torrent скачан:  534 раза   |   
Раздают:  1  
   
Загрузка...
 
Автор Сообщение

Galfimbul

avatar Galfimbul


Kichiku: Haha Shimai Choukyou Nikki / 鬼畜 〜母姉妹調教日記〜 / Выродок: ~Дневник дрессировки сестер с матерью~

Год производства: 2014 г.
Жанр: Blackmail, Drugs, Big tits, Hairy, Masturbation, Oral sex, Rape, Peeing, Creampie
Серии: ep. 02
Продолжительность: 23:05
Цензура: Есть

Язык: Японский
Озвучка: Оригинальная
Перевод: Отсутствует, RAW
Режиссер: kajikazawa chie
Автор оригинала: ChiChi No Ya
Описание: Гениальное описание из раздачи первого эпизода:
Двоюродный брат. Тянок ненавидит, ибо не дают такому жиробасу. Поступает в медколледж и втихаря готовит мегапилюлю, состоящую из афродизиака плюс снотворного. С помощью этих таблеток поочередно подсаживает все семейство на своего вялого. (c)vattok
Доп. информация:
Общее
Полное имя : D:\Kichiku Haha Shimai Choukyou Nikki (Ep02)\Kichiku Haha Shimai Choukyou Nikki (Ep02).mp4
Формат : MPEG-4
Профиль формата : Mobile version
Идентификатор кодека : mmp4
Размер файла : 161 Мбайт
Продолжительность : 23 м.
Режим общего битрейта : Переменный
Общий поток : 974 Кбит/сек
Дата кодирования : UTC 2014-02-08 01:12:35
Дата пометки : UTC 2014-02-08 01:12:35

Видео
Идентификатор : 1
Формат : AVC
Формат/Информация : Advanced Video Codec
Профиль формата : High@L3.2
Параметр CABAC формата : Да
Параметр ReFrames формата : 5 кадров
Идентификатор кодека : avc1
Идентификатор кодека/Информация : Advanced Video Coding
Продолжительность : 23 м.
Битрейт : 841 Кбит/сек
Максимальный битрейт : 2828 Кбит/сек
Ширина : 720 пикселей
Высота : 480 пикселей
Соотношение сторон : 2,105
Соотношение сторон в оригинале : 16:9
Режим частоты кадров : Переменный
Частота кадров : 27,549 кадров/сек
Частота кадров в оригинале : 29,970 кадров/сек
Минимальная частота кадров : 14,985 кадров/сек
Максимальная частота кадров : 120,000 кадров/сек
Стандарт вещания : NTSC
Цветовое пространство : YUV
Субдискретизация насыщенности : 4:2:0
Битовая глубина : 8 бит
Тип развёртки : Прогрессивная
Бит/(Пиксели*Кадры) : 0.088
Размер потока : 139 Мбайт (86%)
Библиотека кодирования : x264 core 123 r2184+681M 5d72658
Настройки программы : cabac=1 / ref=5 / deblock=1:-2:-2 / analyse=0x3:0x113 / me=umh / subme=7 / psy=1 / fade_compensate=0.00 / psy_rd=1.00:0.00 / mixed_ref=1 / me_range=32 / chroma_me=1 / trellis=1 / 8x8dct=1 / cqm=0 / deadzone=21,11 / fast_pskip=1 / chroma_qp_offset=-2 / threads=12 / sliced_threads=0 / nr=0 / decimate=1 / interlaced=0 / bluray_compat=0 / constrained_intra=0 / fgo=0 / bframes=3 / b_pyramid=2 / b_adapt=2 / b_bias=0 / direct=3 / weightb=1 / open_gop=0 / weightp=2 / keyint=250 / keyint_min=25 / scenecut=40 / intra_refresh=0 / rc_lookahead=40 / rc=crf / mbtree=1 / crf=15.0000 / qcomp=0.60 / qpmin=0 / qpmax=69 / qpstep=4 / ip_ratio=1.40 / aq=1:1.00
Дата пометки : UTC 2014-02-08 01:12:36

Аудио
Идентификатор : 2
Формат : AAC
Формат/Информация : Advanced Audio Codec
Профиль формата : LC
Идентификатор кодека : 40
Продолжительность : 23 м.
Вид битрейта : Переменный
Битрейт : 127 Кбит/сек
Максимальный битрейт : 185 Кбит/сек
Каналы : 2 канала
Расположение каналов : Front: L R
Частота : 44,1 КГц
Метод сжатия : С потерями
Размер потока : 21,0 Мбайт (13%)
Дата кодирования : UTC 2014-02-08 01:12:36
Дата пометки : UTC 2014-02-08 01:12:36
Качество видео: SATRip
Разрешение видео: 480p
Формат видео: MP4
Видео: MPEG-4, 841 Кбит/сек, 720x480
Аудио 1: AAC, 127 Кбит/сек, 2 канала, 44,1 КГц

Трекер:  [ 08-Фев-2014 17:08 ]

  

Скачать .torrent

Размер .torrent файла 13 KB


Размер: 161 MB
Хэш (hash) релиза: 082a1a74067f9dc018c57bb7fc0043a33d3e1dda

Торренты, похожие на Kichiku: Haha Shimai Choukyou Nikki Выродок: ~Дневник дрессировки сестер с матерью~ скачать торрент

Форум Название Автор Размер S L Добавлен
Хентай | С цензурой ·· Kichiku: Haha Shimai Choukyou Nikki / Выродок: ~Дневник дрессировки сестер с матерью~ (ChiChi No Ya) (ep. 1-2) [cen] [2013-2014 г. Blackmail, Drugs, Big tits, Hairy, Masturbation, Oral sex, Rape, Peeing, Creampie, DVDRip] [jap / eng / rus] Galfimbul 359723099343 MB 0 0 1393855723

17:08

3-Мар-14

Хентай | С цензурой ·· Kichiku: Haha Shimai Choukyou Nikki / Выродок: ~Дневник дрессировки сестер с матерью~ (ChiChi No Ya) (ep. 1) [cen] [2013 г., Big tits, Oral sex, Rape, Peeing, DVDRip] [jap/eng] LinGr 244242044233 MB 0 0 1385584580

23:36

27-Ноя-13

Еще никто не оставлял запись к записи скачать торрент Kichiku: Haha Shimai Choukyou Nikki Выродок: ~Дневник дрессировки сестер с матерью~ . Будь первым!

!Обратная связь