Скачать через торрент XXII Зимние Олимпийские Игры 2014 Церемония открытия Фильм бесплатно в хорошем качестве torrent

Скачивайте на UnionPeer.org фильмы через торрент без регистрации. Новинки кино в хорошем качестве через торрент. На UnionPeer.org можно скачать через торрент фильмы 2014 и 2015 годов. Самые новые фильмы.

Скачать торрент XXII Зимние Олимпийские Игры 2014 Церемония открытия бесплатно через .torrent фильм мультфильм сериал

Если у вас наблюдаются проблемы со скриншотами, переходом по ссылками, скачиванием торрентов - проблемы в блокировщике рекламы AdBlock. #хорошегоДня!


Статистика раздачи
Размер:  13.62 GB   |    Зарегистрирован:  3 года 8 месяцев   |    .torrent скачан:  35 раз   |   
Раздают:  1  
   
Загрузка...
 
Автор Сообщение

Galfimbul

avatar Galfimbul


Вид спорта: Олимпиада
Участники: Спортсмены и другие
Дата/Год выпуска: 07.02.2014
Продолжительность: 02:37:59
Комментарий: русский (А. Максимов, К. Набутов)
Описание: Церемония открытия XXII Зимних Олимпийских Игр 2014 в Сочи

Автор записи: Striker



Качество: HDTV
Формат: TS
Видео: 1920x1080i, H.264, 25 fps, ~ 11200kbps
Аудио#1: MP2, 48 kHz, 2 ch, ~192.00 kbps
Аудио#2: AC3, 48 kHz, 6 ch, ~384.00 kbps

Format : MPEG-TS
File size : 13.6 GiB
Duration : 2h 37mn
Overall bit rate mode : Variable
Overall bit rate : 12.3 Mbps

Video
ID : 305 (0x131)
Menu ID : 1 (0x1)
Format : AVC
Format/Info : Advanced Video Codec
Format profile : High@L4.0
Format settings, CABAC : Yes
Format settings, ReFrames : 3 frames
Codec ID : 27
Duration : 2h 37mn
Bit rate : 11.2 Mbps
Width : 1 920 pixels
Height : 1 080 pixels
Display aspect ratio : 16:9
Frame rate : 25.000 fps
Standard : Component
Color space : YUV
Chroma subsampling : 4:2:0
Bit depth : 8 bits
Scan type : Interlaced
Scan order : Top Field First
Bits/(Pixel*Frame) : 0.215
Stream size : 12.3 GiB (90%)
Color primaries : BT.709
Transfer characteristics : BT.709
Matrix coefficients : BT.709

Audio #1
ID : 405 (0x195)
Menu ID : 1 (0x1)
Format : MPEG Audio
Format version : Version 1
Format profile : Layer 2
Codec ID : 3
Duration : 2h 37mn
Bit rate mode : Constant
Bit rate : 192 Kbps
Channel count : 2 channels
Sampling rate : 48.0 KHz
Compression mode : Lossy
Stream size : 217 MiB (2%)
Language : Russian

Audio #2
ID : 415 (0x19F)
Menu ID : 1 (0x1)
Format : AC-3
Format/Info : Audio Coding 3
Mode extension : CM (complete main)
Format settings, Endianness : Big
Codec ID : 6
Duration : 2h 37mn
Bit rate mode : Constant
Bit rate : 384 Kbps
Channel count : 6 channels
Channel positions : Front: L C R, Side: L R, LFE
Sampling rate : 48.0 KHz
Bit depth : 16 bits
Compression mode : Lossy
Stream size : 434 MiB (3%)
Language : Russian

Text
ID : 505 (0x1F9)-888
Menu ID : 1 (0x1)
Format : Teletext Subtitle
Language : Russian

Menu
ID : 205 (0xCD)
Menu ID : 1 (0x1)
Duration : 2h 37mn
List : 305 (0x131) (AVC) / 405 (0x195) (MPEG Audio, Russian) / 415 (0x19F) (AC-3, Russian) / 505 (0x1F9) ()
Language : / Russian / Russian


Трекер:  [ 08-Фев-2014 14:10 ]

  

Скачать .torrent

Размер .torrent файла 68 KB


Размер: 13.62 GB
Хэш (hash) релиза: b69bb1475b0be1c42736f66e2afd625c35f9340c
Подписка на обновления:

Еще никто не оставлял запись к записи скачать торрент XXII Зимние Олимпийские Игры 2014 Церемония открытия . Будь первым!

!Обратная связь