Скачать через торрент XXII Зимние Олимпийские Игры 2014. Сноуборд. Слоупстайл. Мужчины. Финал Россия 2 Фильм бесплатно в хорошем качестве torrent

Скачивайте на UnionPeer.org фильмы через торрент без регистрации. Новинки кино в хорошем качестве через торрент. На UnionPeer.org можно скачать через торрент фильмы 2014 и 2015 годов. Самые новые фильмы.

Скачать торрент XXII Зимние Олимпийские Игры 2014. Сноуборд. Слоупстайл. Мужчины. Финал Россия 2 бесплатно через .torrent фильм мультфильм сериал

Если у вас наблюдаются проблемы со скриншотами, переходом по ссылками, скачиванием торрентов - проблемы в блокировщике рекламы AdBlock. #хорошегоДня!


Статистика раздачи
Размер:  727 MB   |    Зарегистрирован:  3 года 8 месяцев   |    .torrent скачан:  29 раз   |   
Раздают:  1  
   
Загрузка...
 
Автор Сообщение

Galfimbul

avatar Galfimbul


XXII Зимние Олимпийские Игры 2014. Сноуборд. Слоупстайл. Мужчины. Финал

Вид спорта: Сноуборд
Комментарий: Профессиональный
Язык комментариев: Русский (Алексей Осин)
Описание: XXII Зимние Олимпийские Игры 2014. Сноуборд. Слоупстайл. Мужчины. Финал
Автор рипа: sanchez2011
Качество: SATRip
Формат: AVI
Видео кодек: XviD
Аудио кодек: MP3
Видео: MPEG-4 Visual (H263) 720x448 (16:10) 25.00fps 1500kbps
Аудио: MPEG Audio Layer 3 48000Hz stereo 128kbps
Все результаты соревнований

Продолжительность: 01:02:24
GeneralComplete name : E:\Олимпиада 2014\XXII Зимние Олимпийские Игры 2014. 08.02.2014 Сноуборд. Слоупстайл. Мужчины. Финал.aviFormat : AVIFormat/Info : Audio Video InterleaveFile size : 727 MiBDuration : 1h 2mnOverall bit rate : 1 629 KbpsWriting application : VirtualDubMod 1.5.10.2 (build 2540/release)Writing library : VirtualDubMod build 2540/release

VideoID : 0Format : MPEG-4 VisualFormat profile : Advanced Simple@L5Format settings, BVOP : 2Format settings, QPel : NoFormat settings, GMC : No warppointsFormat settings, Matrix : Default (H.263)Codec ID : XVIDCodec ID/Hint : XviDDuration : 1h 2mnBit rate : 1 491 KbpsWidth : 720 pixelsHeight : 448 pixelsDisplay aspect ratio : 16:10Frame rate : 25.000 fpsColor space : YUVChroma subsampling : 4:2:0Bit depth : 8 bitsScan type : ProgressiveCompression mode : LossyBits/(Pixel*Frame) : 0.185Stream size : 666 MiB (92%)Writing library : XviD 64

AudioID : 1Format : MPEG AudioFormat version : Version 1Format profile : Layer 3Mode : Joint stereoMode extension : MS StereoCodec ID : 55Codec ID/Hint : MP3Duration : 1h 2mnBit rate mode : ConstantBit rate : 128 KbpsChannel(s) : 2 channelsSampling rate : 48.0 KHzCompression mode : LossyStream size : 57.1 MiB (8%)Alignment : Aligned on interleavesInterleave, duration : 40 ms (1.00 video frame)Interleave, preload duration : 504 msWriting library : LAME3.100


Трекер:  [ 08-Фев-2014 14:10 ]

  

Скачать .torrent

Размер .torrent файла 14 KB


Размер: 727 MB
Хэш (hash) релиза: 122dae1caae282333e11955768abe88e3d77b8af
Подписка на обновления:

Еще никто не оставлял запись к записи скачать торрент XXII Зимние Олимпийские Игры 2014. Сноуборд. Слоупстайл. Мужчины. Финал Россия 2 . Будь первым!

!Обратная связь