Скачать через торрент Сочи 2014 - Церемония открытия Фильм бесплатно в хорошем качестве torrent

Скачивайте на UnionPeer.org фильмы через торрент без регистрации. Новинки кино в хорошем качестве через торрент. На UnionPeer.org можно скачать через торрент фильмы 2014 и 2015 годов. Самые новые фильмы.

Скачать торрент Сочи 2014 - Церемония открытия бесплатно через .torrent фильм мультфильм сериал

Если у вас наблюдаются проблемы со скриншотами, переходом по ссылками, скачиванием торрентов - проблемы в блокировщике рекламы AdBlock. #хорошегоДня!


Статистика раздачи
Размер:  2.05 GB   |    Зарегистрирован:  3 года 8 месяцев   |    .torrent скачан:  42 раза   |   
Раздают:  1  
   
Загрузка...
 
Автор Сообщение

Galfimbul

avatar Galfimbul


Сочи 2014 - Церемония открытия (Без коментаторов)

Вид спорта: Зимние
Дата/Год выпуска: 07/02/2014
Язык комментариев: нет
Продолжительность: 3:05:18

Описание:
Скачано с бухты, раздача пользователя Slimoo.
Кто автор рипа не знаю, логотип канала отстутствует - в начале лишь присутсвует заставка OBS (Olympic Broadcasting Services). Качество видео не очень. Выкладываю потому, что тут пока вроде нет рипов без коментаторов. Сильно не ругайтесь, если что-то не так.
Sochi 2014 - Opening Ceremony - No Commentary.avi
General
Complete name : N:\2013\Sochi 2014\Sochi 2014 - Opening Ceremony - No Commentary.avi
Format : AVI
Format/Info : Audio Video Interleave
Format profile : OpenDML
File size : 2.05 GiB
Duration : 3h 5mn
Overall bit rate : 1 586 Kbps
Writing application : VirtualDubMod 1.5.4.1 (build 2178/release)
Writing library : VirtualDubMod build 2178/release
Video #0
ID : 0
Format : MPEG-4 Visual
Format profile : Advanced Simple@L5
Format settings, BVOP : 1
Format settings, QPel : No
Format settings, GMC : No warppoints
Format settings, Matrix : Custom
Codec ID : XVID
Codec ID/Hint : XviD
Duration : 3h 5mn
Bit rate : 1 321 Kbps
Width : 720 pixels
Height : 416 pixels
Display aspect ratio : 16:9
Frame rate : 25.000 fps
Color space : YUV
Chroma subsampling : 4:2:0
Bit depth : 8 bits
Scan type : Progressive
Compression mode : Lossy
Bits/(Pixel*Frame) : 0.176
Stream size : 1.71 GiB (83%)
Writing library : XviD 1.1.2 (UTC 2006-11-01)
Audio #1
ID : 1
Format : MPEG Audio
Format version : Version 1
Format profile : Layer 2
Codec ID : 50
Duration : 3h 5mn
Bit rate mode : Constant
Bit rate : 256 Kbps
Channel(s) : 2 channels
Sampling rate : 48.0 KHz
Compression mode : Lossy
Stream size : 339 MiB (16%)
Alignment : Aligned on interleaves
Interleave, duration : 80 ms (2.00 video frames)
Interleave, preload duration : 504 ms
Формат видео: AVI
Видео: XviD, 720х416, Битрейт: 1 586 Kbps
Аудио: MPEG Audio, stereo, 256 Kbps
3:05:18


Трекер:  [ 08-Фев-2014 14:10 ]

  

Скачать .torrent

Размер .torrent файла 10 KB


Размер: 2.05 GB
Хэш (hash) релиза: 0bb6968eeb6eb47cf93b17b265024192eaac8c45
Подписка на обновления:

Торренты, похожие на Сочи 2014 - Церемония открытия скачать торрент

Форум Название Автор Размер S L Добавлен
Зимние Олимпийские игры в Сочи 2014 ·· XXII Зимние Олимпийские игры / Церемония Открытия / Россия (Сочи) / День 1 / Спорт 1 HD [06.02.2014, Церемония Открытия, HDTV/1080р, RU] Galfimbul 61464530125.72 GB 0 0 1391802481

22:48

7-Фев-14

Спорт ·· XI Зимние Паралимпийские Игры 2014 (Сочи, Россия). Церемония открытия / Первый Канал HD [07.03.2014, Зимние виды спорта, HDTVRip/720p/50fps, MKV/H.264, RU] Galfimbul 40676601543.79 GB 0 0 1503984041

08:20

29-Авг-17

Зимние Олимпийские игры в Сочи 2014 ·· XXII Зимние Олимпийские Игры 2014 / Церемония открытия в Сочи / Первый канал [07.02.2014, SD 576р, H.264, RU, IPTV] Galfimbul 18327792881.71 GB 0 0 1391845002

10:36

8-Фев-14

Зимние Олимпийские игры в Сочи 2014 ·· XXII Зимние Олимпийские Игры 2014 / Церемония открытия в Сочи / НТВ+ [07.02.2014, SD 576р, H.264, RU, IPTV] Galfimbul 20088283161.87 GB 0 0 1391804547

23:22

7-Фев-14

Зимние Олимпийские игры в Сочи 2014 ·· Церемония открытия зимних олимпийских игр 2014 в Сочи / Перший [07.02.2014, Открытие, IPTVRip, UA] Galfimbul 23891276882.23 GB 0 0 1391802501

22:48

7-Фев-14

Зимние Олимпийские игры в Сочи 2014 ·· Церемония открытия зимних олимпийских игр 2014 в Сочи / НТВ+ [07.02.2014, Открытие Олимпиады, MPEG2, DVB] Galfimbul 93147903958.68 GB 0 0 1391802475

22:47

7-Фев-14

Зимние Олимпийские игры в Сочи 2014 ·· Церемония открытия XXII зимних Олимпийских игр в Сочи / Первый Канал [07.02.2014 г., Открытие, SATRip, XviD] Galfimbul 22741913602.12 GB 0 0 1391802478

22:47

7-Фев-14

Зимние Олимпийские игры в Сочи 2014 ·· Церемония открытия XXII Зимних Олимпийских Игр 2014 в Сочи. HD Спорт [07.02.2014, Олимпиада, HDRip, XviD, RU] Galfimbul 26071942882.43 GB 0 0 1391845130

10:38

8-Фев-14

Зимние Олимпийские игры в Сочи 2014 ·· Церемония открытия XXII Зимних Олимпийских Игр 2014 в Сочи [07.02.2014, Олимпиада, HD/1080i, TS/H.264, ENG / BBC] Galfimbul 1374286862012.8 GB 0 0 1391845115

10:38

8-Фев-14

Зимние Олимпийские игры в Сочи 2014 ·· Церемония открытия XXII Зимних Олимпийских Игр 2014 в Сочи. Спорт 1 HD [07.02.2014, Олимпиада, HDTVRip/400p, h264, RU] Galfimbul 22889149252.13 GB 0 0 1391845113

10:38

8-Фев-14

Зимние Олимпийские игры в Сочи 2014 ·· Церемония открытия XXII Зимних Олимпийских Игр 2014 в Сочи / Первый HD [07.02.2014, H.264, 1080i, RU, HDTV] Galfimbul 1321175489612.3 GB 2 0 1391845082

10:38

8-Фев-14

Зимние Олимпийские игры в Сочи 2014 ·· Церемония открытия XXII Зимних Олимпийских Игр 2014 в Сочи / НТВ+ HD Спорт [07.02.2014, H.264, 1080i, RU, HDTV] Galfimbul 1905508328817.75 GB 0 0 1391845062

10:37

8-Фев-14

Зимние Олимпийские игры в Сочи 2014 ·· Церемония открытия XXII Зимних Олимпийских Игр 2014 в Сочи. Спорт 1 HD [07.02.2014, Олимпиада, HDRip, XviD, RU] Galfimbul 28085637562.62 GB 0 0 1391844979

10:36

8-Фев-14

Зимние Олимпийские игры в Сочи 2014 ·· Церемония открытия зимних олимпийских игр 2014 в Сочи / НТВ+ [07.02.2014, Фигурное катание, XviD, SATRip] Galfimbul 30539632642.84 GB 0 0 1391844963

10:36

8-Фев-14

Зимние Олимпийские игры в Сочи 2014 ·· Церемония открытия XXII Зимних Олимпийских Игр 2014 в Сочи. Спорт 1 HD[07.02.2014, Олимпиада, HDTVRip/720p, MKV, RU] Galfimbul 43924245814.09 GB 0 0 1391804554

23:22

7-Фев-14

Зимние Олимпийские игры в Сочи 2014 ·· XXII Зимние Олимпийские игры. Сочи. Церемония открытия [Первый HD] [2014, Спорт, HDTV 1080i] Galfimbul 1413402687213.16 GB 0 0 1391802350

22:45

7-Фев-14

Еще никто не оставлял запись к записи скачать торрент Сочи 2014 - Церемония открытия . Будь первым!

!Обратная связь