Скачать порно через торрент Koakuma Kanojo The Animation Подруга-дьяволенок UnionPeer.org бесплатно онлайн HD качество

Скачать новое порно 2015, 2014 новинки через торрент UnionPeer.org

Порно торрент бесплатно ЮнионПир.орг

Если у вас наблюдаются проблемы со скриншотами, переходом по ссылками, скачиванием торрентов - проблемы в блокировщике рекламы AdBlock. #хорошегоДня!


Статистика раздачи
Размер:  3.52 GB   |    Зарегистрирован:  3 года 6 месяцев   |    .torrent скачан:  628 раз   |   
Раздают:  1  
   
Загрузка...
 
Автор Сообщение

Galfimbul

avatar Galfimbul


Koakuma Kanojo The Animation / 小悪魔カノジョ THE ANIMATION / Подруга-дьяволенок / Зловещая подруга

Год производства: 2013 г.
Жанр: Big tits, Milk, Oral sex, X-Ray, Mystic, School, Incest, Rape, Demons, Futanari
Серии: ep. 1
Продолжительность: 1х~30 min + 27 min трейлеры
Цензура: Есть

Озвучка: Японская (Оригинальная)

Режиссер: Tatsumi
Автор оригинала: Hisashi
Студия: Pink Pineapple

Описание RUS: Озорная девушка демон решила посетить школу для девушек, из некого интереса но в итоге её разоблачает парень Kazuya из соседней школы, который натыкается на неё после уроков. Даже не пытаясь скрыть свой истинный облик, хвост и зловещую ухмылку, тут же хватает его и тащит к себе, заставляя ублажать её. Kazuya в растерянности, хотя кого я обманываю небось он мечтал об этом моменте всю свою не долгую жизнь. Через мгновение он уже не может остановится "ещё, ещё, ещё.... кричит она ему" издавая возбуждённые стоны. После их утехи ей попадается девочка из её класса Mika которая захотела познакомится с новой одноклассницей. Возможно это роковая ошибка, ведь Mika даже не подозревая что на самом деле она не так просто как кажется на первый взгляд. Под видом милой девушки скрывается ненасытный сукуб. Но теперь уже поздно отнекиваться ведь она не остановится пока не утолит свой голод. © Ксения Нефёдова

Описание ENG: Naughty girl demon decided to visit a school for girls of a certain interest but in the end it exposes Kazuya guy from a neighboring school who stumbles upon her after school. Not even trying to hide his true face, tail and a sinister grin, immediately grabs him and drags to itself, causing it to please. Kazuya in confusion, although who am I kidding I bet he dreamed about this moment my whole life is not long. After a moment, he can not stop " more, more, more .... she yells to him " uttering moans excited. After their joy she comes across a girl in her class Mika who wanted to get acquainted with a new classmate. Maybe it's a fatal mistake, because Mika even knowing that in fact it is not as easy as it seems at first glance. Under the guise of a cute girl hiding sukub insatiable. But now it's too late to make excuses because it will not stop until you quench your hunger.

Информационные ссылки: AniDB - MAL - World Art - ХентайМаг

Качество видео: DVD5
Формат видео: DVD Video
Видео кодек: MPEG2
Аудио кодек: AC3
Видео: 720х480, (16:9), 23,976 кадров/сек, ~ 8653 Кбит/сек, NTSC
Аудио: JAP, AC-3, 2 канала, 192 Кбит/сек, 48,0 КГц
Общее
Полное имя : J:\VIDEO_TS\VTS_01_1.VOB
Формат : MPEG-PS
Размер файла : 1024 Мбайт
Продолжительность : 15 м.
Режим общего битрейта : Переменный
Общий поток : 9025 Кбит/сек

Видео
Идентификатор : 224 (0xE0)
Формат : MPEG Video
Версия формата : Version 2
Профиль формата : Main@Main
Параметр BVOP формата : Да
Параметр матрицы формата : Выборочная
Параметр GOP формата : Variable
Продолжительность : 15 м.
Вид битрейта : Переменный
Битрейт : 8653 Кбит/сек
Максимальный битрейт : 9800 Кбит/сек
Ширина : 720 пикселей
Высота : 480 пикселей
Соотношение сторон : 16:9
Частота кадров : 23,976 кадра/сек
Стандарт вещания : NTSC
Цветовое пространство : YUV
Субдискретизация насыщенности : 4:2:0
Битовая глубина : 8 бит
Тип развёртки : Прогрессивная
Порядок развёртки : 2:3 Pulldown
Метод сжатия : С потерями
Бит/(Пиксели*Кадры) : 1.044
Временной код первого кадра : 01:00:10:00
Оригинал временного кода : Group of pictures header
Размер потока : 982 Мбайт (96%)

Аудио
Идентификатор : 189 (0xBD)-128 (0x80)
Формат : AC-3
Формат/Информация : Audio Coding 3
Расширение режима : CM (complete main)
Параметр Endianness формата : Big
Режим смешивания : DVD-Video
Продолжительность : 15 м.
Вид битрейта : Постоянный
Битрейт : 192 Кбит/сек
Каналы : 2 канала
Расположение каналов : Front: L R
Частота : 48,0 КГц
Битовая глубина : 16 бит
Метод сжатия : С потерями
Размер потока : 21,8 Мбайт (2%)

Меню


Трекер:  [ 08-Фев-2014 13:03 ]

  

Скачать .torrent

Размер .torrent файла 18 KB


Размер: 3.52 GB
Хэш (hash) релиза: 90d2d2f81b7ebc757c7468ef7c522fe8e44266bb

Еще никто не оставлял запись к записи скачать торрент Koakuma Kanojo The Animation Подруга-дьяволенок . Будь первым!

!Обратная связь