Скачать через торрент музыку Люди говорят The People Speak - 2009, FLAC бесплатно без регистрации torrent

Если у вас наблюдаются проблемы со скриншотами, переходом по ссылками, скачиванием торрентов - проблемы в блокировщике рекламы AdBlock. #хорошегоДня!


Статистика раздачи
Размер:  282 MB   |    Зарегистрирован:  6 лет 8 месяцев   |    .torrent скачан:  42 раза   |   
Раздают:  1  
   
Загрузка...
 
Автор Сообщение

Комедиант

avatar Комедиант


Люди говорят / The People Speak

Жанр: Soundtrack
Год выпуска диска: 2009
Производитель диска: Verve
Аудио кодек: FLAC
Тип рипа: tracks+.cue
Битрейт аудио: lossless
Продолжительность: 00:49:47
Источник: WhatCD
Трэклист:
01. Bob Dylan - Do Re Mi [02:58]
02. Bruce Springsteen - The Ghost of Tom Joad [04:45]
03. Eddie Vedder - Masters of War [05:34]
04. Pink - Dear Mr. President [04:41]
05. Randy Newman - Sail Away [02:32]
06. Lupe Fiasco - American Terrorist [04:42]
07. Jackson Browne - Drums of War [04:10]
08. John Legend - What's Going On [05:04]
09. Exene Cervenka & John Doe - See How We Are [04:19]
10. Taj Mahal - Blues With A Feeling [04:54]
11. Allison Moorer - Brother Can You Spare A Dime? [01:52]
12. Rich Robinson - Only A Pawn In Their Game [04:12]
 
X Lossless Decoder version 20100123 (115.4)

XLD extraction logfile from 2010-02-03 20:31:17 -0800

Various Artists / The People Speak

Used drive : HL-DT-ST DVDRW GA11N (revision JA18)

Use cdparanoia mode : YES (CDParanoia III 10.2 engine)Disable audio cache : OK for the drive with cache less than 2750KBMake use of C2 pointers : NORead offset correction : 667Max retry count : 100

TOC of the extracted CD Track | Start | Length | Start sector | End sector --------------------------------------------------------- 1 | 00:00:00 | 02:58:12 | 0 | 13361 2 | 02:58:12 | 04:45:40 | 13362 | 34776 3 | 07:43:52 | 05:34:12 | 34777 | 59838 4 | 13:17:64 | 04:41:40 | 59839 | 80953 5 | 17:59:29 | 02:32:27 | 80954 | 92380 6 | 20:31:56 | 04:42:03 | 92381 | 113533 7 | 25:13:59 | 04:10:07 | 113534 | 132290 8 | 29:23:66 | 05:04:23 | 132291 | 155113 9 | 34:28:14 | 04:19:65 | 155114 | 174603 10 | 38:48:04 | 04:54:65 | 174604 | 196718 11 | 43:42:69 | 01:52:20 | 196719 | 205138 12 | 45:35:14 | 04:12:12 | 205139 | 224050

Track 01 Filename : /Users/Home/Desktop/Various Artists - 2009 - The People Speak FLAC/01 - Do Re Mi.flac

Pre-gap length : 00:02:00

CRC32 hash (test run) : 1A18A757 CRC32 hash : 1A18A757 CRC32 hash (skip zero) : FA9606B6 AccurateRip signature : BFA2E68F ->Accurately ripped! (confidence 1) Statistics Read error : 0 Skipped (treated as error) : 0 Edge jitter error (maybe fixed) : 0 Atom jitter error (maybe fixed) : 0 Drift error (maybe fixed) : 0 Dropped bytes error (maybe fixed) : 0 Duplicated bytes error (maybe fixed) : 0 Inconsistency in error sectors : 0

Track 02 Filename : /Users/Home/Desktop/Various Artists - 2009 - The People Speak FLAC/02 - The Ghost of Tom Joad.flac

Pre-gap length : 00:01:60

CRC32 hash (test run) : 6C426118 CRC32 hash : 6C426118 CRC32 hash (skip zero) : FA273938 AccurateRip signature : 4F7984A8 ->Accurately ripped! (confidence 1) Statistics Read error : 0 Skipped (treated as error) : 0 Edge jitter error (maybe fixed) : 0 Atom jitter error (maybe fixed) : 0 Drift error (maybe fixed) : 0 Dropped bytes error (maybe fixed) : 0 Duplicated bytes error (maybe fixed) : 0 Inconsistency in error sectors : 0

Track 03 Filename : /Users/Home/Desktop/Various Artists - 2009 - The People Speak FLAC/03 - Masters of War.flac

Pre-gap length : 00:01:40

CRC32 hash (test run) : 4F150431 CRC32 hash : 4F150431 CRC32 hash (skip zero) : 747B7745 AccurateRip signature : D11646C5 ->Accurately ripped! (confidence 1) Statistics Read error : 0 Skipped (treated as error) : 0 Edge jitter error (maybe fixed) : 0 Atom jitter error (maybe fixed) : 0 Drift error (maybe fixed) : 0 Dropped bytes error (maybe fixed) : 0 Duplicated bytes error (maybe fixed) : 0 Inconsistency in error sectors : 0

Track 04 Filename : /Users/Home/Desktop/Various Artists - 2009 - The People Speak FLAC/04 - Dear Mr. President.flac

Pre-gap length : 00:00:66

CRC32 hash (test run) : D967A524 CRC32 hash : D967A524 CRC32 hash (skip zero) : FBF2B626 AccurateRip signature : 4E2EEB33 ->Accurately ripped! (confidence 1) Statistics Read error : 0 Skipped (treated as error) : 0 Edge jitter error (maybe fixed) : 0 Atom jitter error (maybe fixed) : 0 Drift error (maybe fixed) : 0 Dropped bytes error (maybe fixed) : 0 Duplicated bytes error (maybe fixed) : 0 Inconsistency in error sectors : 0

Track 05 Filename : /Users/Home/Desktop/Various Artists - 2009 - The People Speak FLAC/05 - Sail Away.flac

Pre-gap length : 00:00:59

CRC32 hash (test run) : CF1B511F CRC32 hash : CF1B511F CRC32 hash (skip zero) : BE9560FC AccurateRip signature : 614C9EDA ->Accurately ripped! (confidence 1) Statistics Read error : 0 Skipped (treated as error) : 0 Edge jitter error (maybe fixed) : 0 Atom jitter error (maybe fixed) : 0 Drift error (maybe fixed) : 0 Dropped bytes error (maybe fixed) : 0 Duplicated bytes error (maybe fixed) : 0 Inconsistency in error sectors : 0

Track 06 Filename : /Users/Home/Desktop/Various Artists - 2009 - The People Speak FLAC/06 - American Terrorist.flac

Pre-gap length : 00:00:27

CRC32 hash (test run) : 72B4F54A CRC32 hash : 72B4F54A CRC32 hash (skip zero) : 0D9864E7 AccurateRip signature : F0C8D039 ->Accurately ripped! (confidence 1) Statistics Read error : 0 Skipped (treated as error) : 0 Edge jitter error (maybe fixed) : 0 Atom jitter error (maybe fixed) : 0 Drift error (maybe fixed) : 0 Dropped bytes error (maybe fixed) : 0 Duplicated bytes error (maybe fixed) : 0 Inconsistency in error sectors : 0

Track 07 Filename : /Users/Home/Desktop/Various Artists - 2009 - The People Speak FLAC/07 - Drums of War.flac

Pre-gap length : 00:01:29

CRC32 hash (test run) : 789F461D CRC32 hash : 789F461D CRC32 hash (skip zero) : 43AF7835 AccurateRip signature : 6F280270 ->Accurately ripped! (confidence 1) Statistics Read error : 0 Skipped (treated as error) : 0 Edge jitter error (maybe fixed) : 0 Atom jitter error (maybe fixed) : 0 Drift error (maybe fixed) : 0 Dropped bytes error (maybe fixed) : 0 Duplicated bytes error (maybe fixed) : 0 Inconsistency in error sectors : 0

Track 08 Filename : /Users/Home/Desktop/Various Artists - 2009 - The People Speak FLAC/08 - What's Going On.flac

Pre-gap length : 00:01:16

CRC32 hash (test run) : 76A5E4BF CRC32 hash : 76A5E4BF CRC32 hash (skip zero) : B4B5DFE1 AccurateRip signature : 541C7215 ->Accurately ripped! (confidence 1) Statistics Read error : 0 Skipped (treated as error) : 0 Edge jitter error (maybe fixed) : 0 Atom jitter error (maybe fixed) : 0 Drift error (maybe fixed) : 0 Dropped bytes error (maybe fixed) : 0 Duplicated bytes error (maybe fixed) : 0 Inconsistency in error sectors : 0

Track 09 Filename : /Users/Home/Desktop/Various Artists - 2009 - The People Speak FLAC/09 - See How We Are.flac

Pre-gap length : 00:00:32

CRC32 hash (test run) : D57845B6 CRC32 hash : D57845B6 CRC32 hash (skip zero) : 530B9A67 AccurateRip signature : C7BF5FBE ->Accurately ripped! (confidence 1) Statistics Read error : 0 Skipped (treated as error) : 0 Edge jitter error (maybe fixed) : 0 Atom jitter error (maybe fixed) : 0 Drift error (maybe fixed) : 0 Dropped bytes error (maybe fixed) : 0 Duplicated bytes error (maybe fixed) : 0 Inconsistency in error sectors : 0

Track 10 Filename : /Users/Home/Desktop/Various Artists - 2009 - The People Speak FLAC/10 - Blues With A Feeling.flac

Pre-gap length : 00:00:74

CRC32 hash (test run) : 7B3B97C5 CRC32 hash : 7B3B97C5 CRC32 hash (skip zero) : DEF67A65 AccurateRip signature : 8B1FE408 ->Accurately ripped! (confidence 1) Statistics Read error : 0 Skipped (treated as error) : 0 Edge jitter error (maybe fixed) : 0 Atom jitter error (maybe fixed) : 0 Drift error (maybe fixed) : 0 Dropped bytes error (maybe fixed) : 0 Duplicated bytes error (maybe fixed) : 0 Inconsistency in error sectors : 0

Track 11 Filename : /Users/Home/Desktop/Various Artists - 2009 - The People Speak FLAC/11 - Brother Can You Spare A Dime?.flac

Pre-gap length : 00:01:59

CRC32 hash (test run) : B3155478 CRC32 hash : B3155478 CRC32 hash (skip zero) : 734CA0E2 AccurateRip signature : 2F06B909 ->Accurately ripped! (confidence 1) Statistics Read error : 0 Skipped (treated as error) : 0 Edge jitter error (maybe fixed) : 0 Atom jitter error (maybe fixed) : 0 Drift error (maybe fixed) : 0 Dropped bytes error (maybe fixed) : 0 Duplicated bytes error (maybe fixed) : 0 Inconsistency in error sectors : 0

Track 12 Filename : /Users/Home/Desktop/Various Artists - 2009 - The People Speak FLAC/12 - Only A Pawn In Their Game.flac

Pre-gap length : 00:00:57

CRC32 hash (test run) : 5A39001A CRC32 hash : 5A39001A CRC32 hash (skip zero) : 8510FC9E AccurateRip signature : 2774F09D ->Accurately ripped! (confidence 1) Statistics Read error : 0 Skipped (treated as error) : 0 Edge jitter error (maybe fixed) : 0 Atom jitter error (maybe fixed) : 0 Drift error (maybe fixed) : 0 Dropped bytes error (maybe fixed) : 0 Duplicated bytes error (maybe fixed) : 0 Inconsistency in error sectors : 0

No errors occurred

End of status report
 
TITLE "The People Speak"CATALOG 0602527265230REM GENRE "Soundtrack"REM DATE 2009FILE "01 - Do Re Mi.wav" WAVE TRACK 01 AUDIO TITLE "Do Re Mi" PERFORMER "Bob Dylan" ISRC USUG10913329 INDEX 01 00:00:00 TRACK 02 AUDIO TITLE "The Ghost of Tom Joad" PERFORMER "Bruce Springsteen" ISRC USUG10913335 INDEX 00 02:56:27FILE "02 - The Ghost of Tom Joad.wav" WAVE INDEX 01 00:00:00 TRACK 03 AUDIO TITLE "Masters of War" PERFORMER "Eddie Vedder" ISRC USUG10913331 INDEX 00 04:44:00FILE "03 - Masters of War.wav" WAVE INDEX 01 00:00:00 TRACK 04 AUDIO TITLE "Dear Mr. President" PERFORMER "Pink" ISRC USUG10913328 INDEX 00 05:33:21FILE "04 - Dear Mr. President.wav" WAVE INDEX 01 00:00:00 TRACK 05 AUDIO TITLE "Sail Away" PERFORMER "Randy Newman" ISRC USUG10913333 INDEX 00 04:40:56FILE "05 - Sail Away.wav" WAVE INDEX 01 00:00:00 TRACK 06 AUDIO TITLE "American Terrorist" PERFORMER "Lupe Fiasco" ISRC USUG10913325 INDEX 00 02:32:00FILE "06 - American Terrorist.wav" WAVE INDEX 01 00:00:00 TRACK 07 AUDIO TITLE "Drums of War" PERFORMER "Jackson Browne" ISRC USUG10913330 INDEX 00 04:40:49FILE "07 - Drums of War.wav" WAVE INDEX 01 00:00:00 TRACK 08 AUDIO TITLE "What's Going On" PERFORMER "John Legend" ISRC USUG10913336 INDEX 00 04:08:66FILE "08 - What's Going On.wav" WAVE INDEX 01 00:00:00 TRACK 09 AUDIO TITLE "See How We Are" PERFORMER "Exene Cervenka & John Doe" ISRC USUG10913334 INDEX 00 05:03:66FILE "09 - See How We Are.wav" WAVE INDEX 01 00:00:00 TRACK 10 AUDIO TITLE "Blues With A Feeling" PERFORMER "Taj Mahal" ISRC USUG10913326 INDEX 00 04:18:66FILE "10 - Blues With A Feeling.wav" WAVE INDEX 01 00:00:00 TRACK 11 AUDIO TITLE "Brother Can You Spare A Dime?" PERFORMER "Allison Moorer" ISRC USUG10913327 INDEX 00 04:53:06FILE "11 - Brother Can You Spare A Dime?.wav" WAVE INDEX 01 00:00:00 TRACK 12 AUDIO TITLE "Only A Pawn In Their Game" PERFORMER "Rich Robinson" ISRC USUG10913332 INDEX 00 01:51:38FILE "12 - Only A Pawn In Their Game.wav" WAVE INDEX 01 00:00:00
 
TITLE "The People Speak"CATALOG 0602527265230REM GENRE "Soundtrack"REM DATE 2009FILE "01 - Do Re Mi.wav" WAVE TRACK 01 AUDIO TITLE "Do Re Mi" PERFORMER "Bob Dylan" ISRC USUG10913329 INDEX 01 00:00:00 TRACK 02 AUDIO TITLE "The Ghost of Tom Joad" PERFORMER "Bruce Springsteen" ISRC USUG10913335 INDEX 00 02:56:27FILE "02 - The Ghost of Tom Joad.wav" WAVE INDEX 01 00:00:00 TRACK 03 AUDIO TITLE "Masters of War" PERFORMER "Eddie Vedder" ISRC USUG10913331 INDEX 00 04:44:00FILE "03 - Masters of War.wav" WAVE INDEX 01 00:00:00 TRACK 04 AUDIO TITLE "Dear Mr. President" PERFORMER "Pink" ISRC USUG10913328 INDEX 00 05:33:21FILE "04 - Dear Mr. President.wav" WAVE INDEX 01 00:00:00 TRACK 05 AUDIO TITLE "Sail Away" PERFORMER "Randy Newman" ISRC USUG10913333 INDEX 00 04:40:56FILE "05 - Sail Away.wav" WAVE INDEX 01 00:00:00 TRACK 06 AUDIO TITLE "American Terrorist" PERFORMER "Lupe Fiasco" ISRC USUG10913325 INDEX 00 02:32:00FILE "06 - American Terrorist.wav" WAVE INDEX 01 00:00:00 TRACK 07 AUDIO TITLE "Drums of War" PERFORMER "Jackson Browne" ISRC USUG10913330 INDEX 00 04:40:49FILE "07 - Drums of War.wav" WAVE INDEX 01 00:00:00 TRACK 08 AUDIO TITLE "What's Going On" PERFORMER "John Legend" ISRC USUG10913336 INDEX 00 04:08:66FILE "08 - What's Going On.wav" WAVE INDEX 01 00:00:00 TRACK 09 AUDIO TITLE "See How We Are" PERFORMER "Exene Cervenka & John Doe" ISRC USUG10913334 INDEX 00 05:03:66FILE "09 - See How We Are.wav" WAVE INDEX 01 00:00:00 TRACK 10 AUDIO TITLE "Blues With A Feeling" PERFORMER "Taj Mahal" ISRC USUG10913326 INDEX 00 04:18:66FILE "10 - Blues With A Feeling.wav" WAVE INDEX 01 00:00:00 TRACK 11 AUDIO TITLE "Brother Can You Spare A Dime?" PERFORMER "Allison Moorer" ISRC USUG10913327 INDEX 00 04:53:06FILE "11 - Brother Can You Spare A Dime.wav" WAVE INDEX 01 00:00:00 TRACK 12 AUDIO TITLE "Only A Pawn In Their Game" PERFORMER "Rich Robinson" ISRC USUG10913332 INDEX 00 01:51:38FILE "12 - Only A Pawn In Their Game.wav" WAVE INDEX 01 00:00:00


Трекер:  [ 07-Фев-2011 21:52 ]

  

Скачать .torrent

Размер .torrent файла 23 KB


Размер: 282 MB
Хэш (hash) релиза: 90f9403b6f967a03c1cb8a0b9f6a66963c11411f

Еще никто не оставлял запись к записи скачать торрент Люди говорят The People Speak - 2009, FLAC . Будь первым!

!Обратная связь