Скачать через торрент 2014 Olympic Winter Games. Figure Skating. Team XXII Зимние Олимпийские игры. Сочи. Фигурное катание. Командные соревнования Фильм бесплатно в хорошем качестве torrent

Скачивайте на UnionPeer.org фильмы через торрент без регистрации. Новинки кино в хорошем качестве через торрент. На UnionPeer.org можно скачать через торрент фильмы 2014 и 2015 годов. Самые новые фильмы.

Скачать торрент 2014 Olympic Winter Games. Figure Skating. Team XXII Зимние Олимпийские игры. Сочи. Фигурное катание. Командные соревнования бесплатно через .torrent фильм мультфильм сериал

Если у вас наблюдаются проблемы со скриншотами, переходом по ссылками, скачиванием торрентов - проблемы в блокировщике рекламы AdBlock. #хорошегоДня!


Статистика раздачи
Размер:  17.86 GB   |    Зарегистрирован:  3 года 8 месяцев   |    .torrent скачан:  44 раза   |   
Раздают:  1  
   
Загрузка...
 
Автор Сообщение

Galfimbul

avatar Galfimbul


XXII Зимние Олимпийские игры. Фигурное катание. Командные соревнования



Вид спорта: фигурное катание
Дата/Год выпуска: 06.02.2014
Автор рипа/записи: собственная запись

Язык комментариев: русский (Александр Васильев, Олег Васильев)

Описание: Командные соревнования по фигурному катанию.
Арена Айсберг, Сочи, 2014

Доп. информация: Запись с канала СПОРТ 1 HD (НТВ+). Запись не пережата, в контейнере mkv записаны оригинальные потоки.





Качество: SATRip
Формат видео: MKV
Видео: mpeg4 AVC, 1920x1088, 50.00 fps, 16:9, YUV, VBR ~13 Mbps
Аудио: mpeg2, stereo, 48 kHz, 192 kbps, rus
General
Unique ID : 252251018307790995959215223717223862225 (0xBDC5C76A52C38DF69E1B334481DA0FD1)
Complete name : E:\Temp\2014.OlympicWinterGames.Team.Men.ShortProgram.mkv
Format : Matroska
Format version : Version 2
File size : 8.17 GiB
Duration : 1h 30mn
Overall bit rate : 12.9 Mbps
Movie name : 2014 Olympic WG Team Men Short Program
Encoded date : UTC 2014-02-07 05:47:21
Writing application : mkvmerge v6.5.0 (''Isn''t she lovely'') built on Oct 20 2013 12:50:05
Writing library : libebml v1.3.0 + libmatroska v1.4.1
Original source form : TV
DATE_BROADCASTED : 2014-02-06 21:20:00
TVCHANNEL : Спорт 1 HD

Video
ID : 1
Format : AVC
Format/Info : Advanced Video Codec
Format profile : High@L4.0
Format settings, CABAC : Yes
Format settings, ReFrames : 3 frames
Codec ID : V_MPEG4/ISO/AVC
Bit rate : 12.4 Mbps
Width : 1 920 pixels
Height : 1 088 pixels
Original height : 1 080 pixels
Display aspect ratio : 16:9
Original display aspect ratio : 16:9
Standard : Component
Color space : YUV
Chroma subsampling : 4:2:0
Bit depth : 8 bits
Scan type : Interlaced
Scan order : Top Field First
Language : English
Default : Yes
Forced : No
Color primaries : BT.709-5, BT.1361, IEC 61966-2-4, SMPTE RP177
Transfer characteristics : BT.709-5, BT.1361
Matrix coefficients : BT.709-5, BT.1361, IEC 61966-2-4 709, SMPTE RP177

Audio
ID : 2
Format : MPEG Audio
Format version : Version 1
Format profile : Layer 2
Codec ID : A_MPEG/L2
Codec ID/Hint : MP2
Duration : 1h 30mn
Bit rate mode : Constant
Bit rate : 192 Kbps
Channel(s) : 2 channels
Sampling rate : 48.0 KHz
Compression mode : Lossy
Delay relative to video : 16ms
Stream size : 125 MiB (1%)
Language : Russian
Default : Yes
Forced : No
General
Unique ID : 240460843923520997155544425297998271084 (0xB4E712F01F9C14BEAF3D57EF2C98526C)
Complete name : E:\Temp\2014.OlympicWinterGames.Team.Pairs.ShortProgram.mkv
Format : Matroska
Format version : Version 2
File size : 9.69 GiB
Duration : 1h 47mn
Overall bit rate : 12.9 Mbps
Movie name : 2014 Olympic Winter Games Team Pairs Short Program
Encoded date : UTC 2014-02-07 06:14:39
Writing application : mkvmerge v6.5.0 (''Isn''t she lovely'') built on Oct 20 2013 12:50:05
Writing library : libebml v1.3.0 + libmatroska v1.4.1
Original source form : TV
DATE_BROADCASTED : 2014-02-06 23:05:00
TVCHANNEL : Спорт 1 HD

Video
ID : 1
Format : AVC
Format/Info : Advanced Video Codec
Format profile : High@L4.0
Format settings, CABAC : Yes
Format settings, ReFrames : 3 frames
Codec ID : V_MPEG4/ISO/AVC
Bit rate : 12.4 Mbps
Width : 1 920 pixels
Height : 1 088 pixels
Original height : 1 080 pixels
Display aspect ratio : 16:9
Original display aspect ratio : 16:9
Standard : Component
Color space : YUV
Chroma subsampling : 4:2:0
Bit depth : 8 bits
Scan type : Interlaced
Scan order : Top Field First
Language : English
Default : Yes
Forced : No
Color primaries : BT.709-5, BT.1361, IEC 61966-2-4, SMPTE RP177
Transfer characteristics : BT.709-5, BT.1361
Matrix coefficients : BT.709-5, BT.1361, IEC 61966-2-4 709, SMPTE RP177

Audio
ID : 2
Format : MPEG Audio
Format version : Version 1
Format profile : Layer 2
Codec ID : A_MPEG/L2
Codec ID/Hint : MP2
Duration : 1h 47mn
Bit rate mode : Constant
Bit rate : 192 Kbps
Channel(s) : 2 channels
Sampling rate : 48.0 KHz
Compression mode : Lossy
Stream size : 148 MiB (1%)
Language : Russian
Default : Yes
Forced : No
DALEMAN Gabrielle
OSMOND Kaetlyn
CHAN Patrick
FIRUS Liam
REYNOLDS Kevin
DUHAMEL Meagan / RADFORD Eric
LAWRENCE Paige / SWIEGERS Rudi
MOORE-TOWERS K / MOSCOVITCH D
PAUL Alexandra / ISLAM Mitchell
VIRTUE Tessa / MOIR Scott
WEAVER Kaitlyn / POJE Andrew
LI Zijun
ZHANG Kexin
YAN Han
PANG Qing / TONG Jian
PENG Cheng / ZHANG Hao
HUANG Xintong / ZHENG Xun
MEITE Mae Berenice
AMODIO Florent
JOUBERT Brian
JAMES Vanessa / CIPRES Morgan
CARRON Pernelle / JONES Lloyd
PECHALAT Nathalie / BOURZAT Fabian
McCORKELL Jenna
PARR Matthew
KEMP Stacey / KING David
COOMES Penny / BUCKLAND Nicholas
WEINZIERL Nathalie
LIEBERS Peter
SAVCHENKO Aliona / SZOLKOWY Robin
WENDE Maylin / WENDE Daniel
KOLBE Tanja / CARUSO Stefano
ZHIGANSHINA Nelli / GAZSI Alexander
KOSTNER Carolina
MARCHEI Valentina
PARKINSON Paul Bonifacio
BERTON Stefania / HOTAREK Ondrej
DELLA MONICA N / GUARISE M
CAPPELLINI Anna / LANOTTE Luca
GUIGNARD Charlene / FABBRI Marco
ASADA Mao
MURAKAMI Kanako
SUZUKI Akiko
HANYU Yuzuru
MACHIDA Tatsuki
TAKAHASHI Daisuke
TAKAHASHI Narumi / KIHARA Ryuichi
REED Cathy / REED Chris
LIPNITSKAYA Yulia
SOTNIKOVA Adelina
PLYUSHCHENKO Evgeny
BAZAROVA Vera / LARIONOV Yuri
STOLBOVA Ksenia / KLIMOV Fedor
VOLOSOZHAR Tatiana / TRANKOV Maxim x
BOBROVA Ekaterina / SOLOVIEV Dmitri
ILINYKH Elena / KATSALAPOV Nikita
SINITSINA V / ZHIGANSHIN R
POPOVA Natalia
GODOROZHA Yakov
LAVRENTIEVA Julia / RUDYK Yuri
HEEKIN-CANEDY Siobhan / DUN Dmitri
EDMUNDS Polina
GOLD Gracie
WAGNER Ashley
ABBOTT Jeremy
BROWN Jason
CASTELLI Marissa / SHNAPIR Simon
ZHANG Felicia / BARTHOLOMAY Nathan
CHOCK Madison / BATES Evan
DAVIS Meryl / WHITE Charlie
SHIBUTANI Maia / SHIBUTANI Alex
01:30:00 + 00:00:00
00:00:00 + 00:00:00
01:47:00 + 00:00:00
00:00:00 + 00:00:00

Внимание! Раздача ведётся путём добавления новых файлов; при каждом добавлении создётся новый торрент. Чтобы начать докачку новых видео, пользователям необходимо сделать следующее:
(1) остановить скачивание,
(2) удалить старый торрент у себя из клиента (старые файлы удалять не надо),
(3) скачать новый торрент и запустить его у себя в клиенте вместо старого, при этом указать клиенту путь в старую папку, куда и должно происходить скачивание новых файлов.
Ваш клиент при этом должен произвести хеширование (проверку) старой папки (если не производит сам - помогите ему сделать это), и будет докачивать только те файлы, которых у вас ещё нет. Старые файлы при этом не удаляются, а продолжают раздаваться!
Eсли вы уже удалили старые файлы, то предотвратить повторную закачку старых можно, отжав галочку в соответствующих местах при запуске нового торрента.


Трекер:  [ 07-Фев-2014 11:36 ]

  

Скачать .torrent

Размер .torrent файла 45 KB


Размер: 17.86 GB
Хэш (hash) релиза: aba14708fde82ca5f1fb22e8dbc0364bc0e90b60
Подписка на обновления:

Еще никто не оставлял запись к записи скачать торрент 2014 Olympic Winter Games. Figure Skating. Team XXII Зимние Олимпийские игры. Сочи. Фигурное катание. Командные соревнования . Будь первым!

!Обратная связь