Скачать через торрент Дневник Олимпиады №1 Россия HD Фильм бесплатно в хорошем качестве torrent

Скачивайте на UnionPeer.org фильмы через торрент без регистрации. Новинки кино в хорошем качестве через торрент. На UnionPeer.org можно скачать через торрент фильмы 2014 и 2015 годов. Самые новые фильмы.

Скачать торрент Дневник Олимпиады №1 Россия HD бесплатно через .torrent фильм мультфильм сериал

Если у вас наблюдаются проблемы со скриншотами, переходом по ссылками, скачиванием торрентов - проблемы в блокировщике рекламы AdBlock. #хорошегоДня!


Статистика раздачи
Размер:  685 MB   |    Зарегистрирован:  3 года 8 месяцев   |    .torrent скачан:  40 раз   |   
Раздают:  1  
   
Загрузка...
 
Автор Сообщение

Galfimbul

avatar Galfimbul


Дневник Олимпиады №1

Год выпуска: 2014
Дата эфира: 7 февраля
Ведущие: Дмитрий Губерниев и Анастасия Чернобровина
Язык комментариев: Русский
Продолжительность: 00:58:44
Описание: Первый выпуск Дневника Олимпиады ВГТРК от 7 февраля 2014 г. В выпуске вы подробно познакомитесь с олимпийскими объектами, олимпийской деревней, узнаете последние лыжные и биатлонные новости из прямого включения Ильи Трифанова со стадиона "Лаура", интервью со знаменосцем нашей страны на Церемонии Открытия - Александром Зубковым, а так же обзор первого дня по фигурному катанию, интервью с фигуристами и многое другое.
Автор рипа: sanchez2011

Качество: HDTVRip
Формат: MKV
Видео кодек: AVC
Аудио кодек: MP3
Видео: MPEG-4 Video (H264) 704x400 (16:9) 25.00fps 1500kbps
Аудио: MPEG Audio 48000Hz stereo 128kbps
GeneralUnique ID : 218429113031642692487248783184453896304 (0xA453EABD5300B8E4C9FEA0B449330870)Complete name : E:\Олимпиада 2014\Дневник Олимпиады\Дневник Олимпиады №1.mkvFormat : MatroskaFormat version : Version 2File size : 685 MiBDuration : 58mn 44sOverall bit rate : 1 632 KbpsWriting application : XviD4PSP 6.0 / 53.6.0Writing library : XviD4PSP 6.0 / 53.6.0

VideoID : 1Format : AVCFormat/Info : Advanced Video CodecFormat profile : High@L4.1Format settings, CABAC : YesFormat settings, ReFrames : 3 framesCodec ID : V_MPEG4/ISO/AVCDuration : 58mn 44sBit rate : 1 500 KbpsWidth : 704 pixelsHeight : 400 pixelsDisplay aspect ratio : 16:9Frame rate mode : ConstantFrame rate : 25.000 fpsColor space : YUVChroma subsampling : 4:2:0Bit depth : 8 bitsScan type : MBAFFBits/(Pixel*Frame) : 0.213Stream size : 618 MiB (90%)Writing library : x264 core 116 r2019M 9cc407dEncoding settings : cabac=1 / ref=3 / deblock=1:0:0 / analyse=0x3:0x133 / me=hex / subme=7 / psy=1 / psy_rd=1.00:0.20 / mixed_ref=1 / me_range=16 / chroma_me=1 / trellis=1 / 8x8dct=1 / cqm=0 / deadzone=21,11 / fast_pskip=1 / chroma_qp_offset=-3 / threads=8 / sliced_threads=0 / nr=0 / decimate=1 / interlaced=tff / bluray_compat=0 / constrained_intra=0 / bframes=3 / b_pyramid=1 / b_adapt=2 / b_bias=0 / direct=3 / weightb=1 / open_gop=0 / weightp=0 / keyint=250 / keyint_min=25 / scenecut=40 / intra_refresh=0 / rc_lookahead=40 / rc=abr / mbtree=1 / bitrate=1500 / ratetol=1.0 / qcomp=0.60 / qpmin=10 / qpmax=51 / qpstep=4 / ip_ratio=1.40 / aq=1:1.00Default : YesForced : No

AudioID : 2Format : MPEG AudioFormat version : Version 1Format profile : Layer 3Mode : Joint stereoMode extension : MS StereoCodec ID : A_MPEG/L3Codec ID/Hint : MP3Duration : 58mn 44sBit rate mode : ConstantBit rate : 128 KbpsChannel(s) : 2 channelsSampling rate : 48.0 KHzCompression mode : LossyStream size : 53.8 MiB (8%)Writing library : LAME3.98.2Language : RussianDefault : YesForced : No


Трекер:  [ 07-Фев-2014 11:36 ]

  

Скачать .torrent

Размер .torrent файла 14 KB


Размер: 685 MB
Хэш (hash) релиза: 7912a046dc33a82e9021064425e6a3818f5a95ca
Подписка на обновления:

Торренты, похожие на Дневник Олимпиады №1 Россия HD скачать торрент

Форум Название Автор Размер S L Добавлен
Зимние Олимпийские игры в Сочи 2014 ·· Дневник Олимпиады №1 / Россия HD [07.02.2014 г., Олимпиада, HDTV, 1080i] Galfimbul 40459188603.77 GB 0 0 1391762182

11:36

7-Фев-14

Зимние Олимпийские игры в Сочи 2014 ·· XXII Зимние Олимпийские Игры 2014 в Сочи. Дневник Олимпиады. 1 - 1 из ?. РОССИЯ HD [07.02.2014, Дневник, HDRip, XviD, RU] Galfimbul 892536832851 MB 0 0 1391762200

11:36

7-Фев-14

Еще никто не оставлял запись к записи скачать торрент Дневник Олимпиады №1 Россия HD . Будь первым!

!Обратная связь