Скачать через торрент Дневник Олимпиады №1 Россия HD Фильм бесплатно в хорошем качестве torrent

Скачивайте на UnionPeer.org фильмы через торрент без регистрации. Новинки кино в хорошем качестве через торрент. На UnionPeer.org можно скачать через торрент фильмы 2014 и 2015 годов. Самые новые фильмы.

Скачать торрент Дневник Олимпиады №1 Россия HD бесплатно через .torrent фильм мультфильм сериал

Если у вас наблюдаются проблемы со скриншотами, переходом по ссылками, скачиванием торрентов - проблемы в блокировщике рекламы AdBlock. #хорошегоДня!


Статистика раздачи
Размер:  3.77 GB   |    Зарегистрирован:  3 года 7 месяцев   |    .torrent скачан:  42 раза   |   
Раздают:  1  
   
Загрузка...
 
Автор Сообщение

Galfimbul

avatar Galfimbul


Дневник Олимпиады №1

Год выпуска: 2014
Дата эфира: 7 февраля
Ведущие: Дмитрий Губерниев и Анастасия Чернобровина
Язык комментариев: Русский
Продолжительность: 00:58:44
Описание: Первый выпуск Дневника Олимпиады ВГТРК от 7 февраля 2014 г. В выпуске вы подробно познакомитесь с олимпийскими объектами, олимпийской деревней, узнаете последние лыжные и биатлонные новости из прямого включения Ильи Трифанова со стадиона "Лаура", интервью со знаменосцем нашей страны на Церемонии Открытия - Александром Зубковым, а так же обзор первого дня по фигурному катанию, интервью с фигуристами и многое другое.
Автор рипа: sanchez2011

Качество: HDTV
Формат: MPEG-TS
Видео кодек: AVC
Аудио кодек: MP2
Видео: MPEG4 Video (H264) 1920x1080 8504kbps 25fps
Аудио: MPEG Audio 48000Hz stereo 224kbps
GeneralID : 1 (0x1)Complete name : E:\Олимпиада 2014\Дневник Олимпиады\Дневник Олимпиады №1.tsFormat : MPEG-TSFile size : 3.77 GiBDuration : 58mn 44sOverall bit rate mode : VariableOverall bit rate : 9 184 Kbps

VideoID : 1901 (0x76D)Menu ID : 1 (0x1)Format : AVCFormat/Info : Advanced Video CodecFormat profile : High@L4.0Format settings, CABAC : YesFormat settings, ReFrames : 3 framesCodec ID : 27Duration : 58mn 44sBit rate : 8 504 KbpsWidth : 1 920 pixelsHeight : 1 080 pixelsDisplay aspect ratio : 16:9Frame rate : 25.000 fpsStandard : ComponentColor space : YUVChroma subsampling : 4:2:0Bit depth : 8 bitsScan type : InterlacedScan order : Top Field FirstBits/(Pixel*Frame) : 0.164Stream size : 3.49 GiB (93%)Color primaries : BT.709Transfer characteristics : BT.709Matrix coefficients : BT.709

AudioID : 2901 (0xB55)Menu ID : 1 (0x1)Format : MPEG AudioFormat version : Version 1Format profile : Layer 2Codec ID : 3Duration : 58mn 44sBit rate mode : ConstantBit rate : 224 KbpsChannel(s) : 2 channelsSampling rate : 48.0 KHzCompression mode : LossyStream size : 94.1 MiB (2%)Language : Russian


Трекер:  [ 07-Фев-2014 11:36 ]

  

Скачать .torrent

Размер .torrent файла 19 KB


Размер: 3.77 GB
Хэш (hash) релиза: bff7f43fbdc1cb8365f9378529e7161215d10b27
Подписка на обновления:

Торренты, похожие на Дневник Олимпиады №1 Россия HD скачать торрент

Форум Название Автор Размер S L Добавлен
Зимние Олимпийские игры в Сочи 2014 ·· Дневник Олимпиады №1 / Россия HD [2014, Олимпиада, HDTVRip, MKV, 400p] Galfimbul 718737510685 MB 0 0 1391762204

11:36

7-Фев-14

Зимние Олимпийские игры в Сочи 2014 ·· XXII Зимние Олимпийские Игры 2014 в Сочи. Дневник Олимпиады. 1 - 1 из ?. РОССИЯ HD [07.02.2014, Дневник, HDRip, XviD, RU] Galfimbul 892536832851 MB 0 0 1391762200

11:36

7-Фев-14

Еще никто не оставлял запись к записи скачать торрент Дневник Олимпиады №1 Россия HD . Будь первым!

!Обратная связь