Скачать через торрент XXII Зимние Олимпийские игры в Сочи. Горные лыжи. Скоростной спуск. Мужчины. Тренировка Россия 2 Фильм бесплатно в хорошем качестве torrent

Скачивайте на UnionPeer.org фильмы через торрент без регистрации. Новинки кино в хорошем качестве через торрент. На UnionPeer.org можно скачать через торрент фильмы 2014 и 2015 годов. Самые новые фильмы.

Скачать торрент XXII Зимние Олимпийские игры в Сочи. Горные лыжи. Скоростной спуск. Мужчины. Тренировка Россия 2 бесплатно через .torrent фильм мультфильм сериал

Если у вас наблюдаются проблемы со скриншотами, переходом по ссылками, скачиванием торрентов - проблемы в блокировщике рекламы AdBlock. #хорошегоДня!


Статистика раздачи
Размер:  407 MB   |    Зарегистрирован:  3 года 8 месяцев   |    .torrent скачан:  38 раз   |   
Раздают:  1  
   
Загрузка...
 
Автор Сообщение

Galfimbul

avatar Galfimbul


XXII Зимние Олимпийские игры в Сочи. Горные лыжи. Скоростной спуск. Мужчины. Тренировка

Вид спорта: Горные лыжи
Комментарий: Профессиональный
Язык комментариев: Русский (Тарас Тимошенко)
Описание: XXII Зимние Олимпийские игры в Сочи. Горные лыжи. Скоростной спуск. Мужчины. Тренировка. Нарезка ливерной колбасы от т/к Россия 2
Автор рипа: sanchez2011
Качество: SATRip
Формат: MKV
Видео кодек: AVC
Аудио кодек: MP3
Видео: MPEG-4 Video (H264) 720x448 (16:10) 25.00fps 1500kbps
Аудио: MPEG Audio Layer 3 48000Hz stereo 128kbps
Все результаты соревнований

Продолжительность: 00:34:50
GeneralUnique ID : 246966483414192303137427867181404905437 (0xB9CC03BAA55ABD27CE14E1110293DFDD)Complete name : E:\Олимпиада 2014\XXII Зимние Олимпийские игры в Сочи. 06.02.2014 Горные лыжи. Скоростной спуск. Мужчины. Тренировка.mkvFormat : MatroskaFormat version : Version 2File size : 407 MiBDuration : 34mn 50sOverall bit rate : 1 632 KbpsWriting application : XviD4PSP 6.0 / 53.6.0Writing library : XviD4PSP 6.0 / 53.6.0

VideoID : 1Format : AVCFormat/Info : Advanced Video CodecFormat profile : High@L4.1Format settings, CABAC : YesFormat settings, ReFrames : 3 framesCodec ID : V_MPEG4/ISO/AVCDuration : 34mn 50sBit rate : 1 500 KbpsWidth : 720 pixelsHeight : 448 pixelsDisplay aspect ratio : 16:10Frame rate mode : ConstantFrame rate : 25.000 fpsColor space : YUVChroma subsampling : 4:2:0Bit depth : 8 bitsScan type : ProgressiveBits/(Pixel*Frame) : 0.186Stream size : 367 MiB (90%)Writing library : x264 core 116 r2019M 9cc407dEncoding settings : cabac=1 / ref=3 / deblock=1:0:0 / analyse=0x3:0x133 / me=hex / subme=7 / psy=1 / psy_rd=1.00:0.20 / mixed_ref=1 / me_range=16 / chroma_me=1 / trellis=1 / 8x8dct=1 / cqm=0 / deadzone=21,11 / fast_pskip=1 / chroma_qp_offset=-3 / threads=8 / sliced_threads=0 / nr=0 / decimate=1 / interlaced=0 / bluray_compat=0 / constrained_intra=0 / bframes=3 / b_pyramid=1 / b_adapt=2 / b_bias=0 / direct=3 / weightb=1 / open_gop=0 / weightp=2 / keyint=250 / keyint_min=25 / scenecut=40 / intra_refresh=0 / rc_lookahead=40 / rc=abr / mbtree=1 / bitrate=1500 / ratetol=1.0 / qcomp=0.60 / qpmin=10 / qpmax=51 / qpstep=4 / ip_ratio=1.40 / aq=1:1.00Default : YesForced : No

AudioID : 2Format : MPEG AudioFormat version : Version 1Format profile : Layer 3Mode : Joint stereoMode extension : MS StereoCodec ID : A_MPEG/L3Codec ID/Hint : MP3Duration : 34mn 50sBit rate mode : ConstantBit rate : 128 KbpsChannel(s) : 2 channelsSampling rate : 48.0 KHzCompression mode : LossyStream size : 31.9 MiB (8%)Writing library : LAME3.98.2Default : YesForced : No


Трекер:  [ 06-Фев-2014 22:44 ]

  

Скачать .torrent

Размер .torrent файла 16 KB


Размер: 407 MB
Хэш (hash) релиза: ff9a80009693bee854895914661922f24f7d5305
Подписка на обновления:

Еще никто не оставлял запись к записи скачать торрент XXII Зимние Олимпийские игры в Сочи. Горные лыжи. Скоростной спуск. Мужчины. Тренировка Россия 2 . Будь первым!

!Обратная связь