Скачать порно через торрент Eroge! H mo Game mo Kaihatsu Zanmai Порноигры! С головой — и в секс, и в разработку! UnionPeer.org бесплатно онлайн HD качество

Скачать новое порно 2015, 2014 новинки через торрент UnionPeer.org

Порно торрент бесплатно ЮнионПир.орг

Если у вас наблюдаются проблемы со скриншотами, переходом по ссылками, скачиванием торрентов - проблемы в блокировщике рекламы AdBlock. #хорошегоДня!


Статистика раздачи
Размер:  14.68 GB   |    Зарегистрирован:  3 года 8 месяцев   |    .torrent скачан:  380 раз   |   
Раздают:  1  
   
Загрузка...
 
Автор Сообщение

Galfimbul

avatar Galfimbul


Eroge! H mo Game mo Kaihatsu Zanmai / えろげー! ~Hもゲームも開発三昧~ / Порноигры! С головой — и в секс, и в разработку!

Год производства: 2011 г.
Жанр: Big tits, Tiny tits, Footjob, Milk, Oral sex, Titsjob, X-Ray, Comedy, Beach, Harem
Серии: ep. 1-4 of 4
Продолжительность: 4х~30 min
Цензура: Есть

Озвучка: Японская (Оригинальная)

Режиссер: Matano Ryuuzou
Автор оригинала: ClockUp
Студия: Collaboration Works

Описание RUS: Выпуск первой эротической игры студии Flower завершился полным провалом, и сотрудники остались без зарплаты. Впрочем, они не сотрудники, а сотрудницы — весь штат этой небольшой компании состоит из четырех миловидных девушек. У них внушительный стаж по части рисования додзинси и написания эротических новелл, и они добились некоторых успехов на этом поприще, но есть одно отягчающее обстоятельство: они все девственницы, и на результатах их труда сказывается отсутствие реального жизненного опыта. Для спасения положения на работу в компанию был срочно принят молодой человек, который прошел несколько сотен хентайных игр и стал, по сути, экспертом. Но вот беда: он тоже девственник, и реальной практики у него тоже нет. Тем не менее, теперь никто не мешает коллективу Flower обрести столько опыта, сколько позволит фантазия. Но исключительно ради сбора материала и последующего успеха нового проекта!
© Pelikan

Описание ENG: Mochizuki Tomoya is a guy that lives on his own with only a day job at a convenience store keeping him afloat. While he really likes eroge, he can't draw, isn't much of a writer or composer, and doesn't know much about business. Still, his dream is to get a job at an eroge studio in hopes of creating what he loves, eroge.
Tomoya's luck takes a turn for the better when he sees a help wanted ad for the local studio Flower, and after a meeting with the company president (who to his surprise looks like an elementary school kid), manages to get a job as administrator of the company's website. Tomoya's glee at being part of the eroge industry is short-lived, as he soon learns that Flower is on the chopping block due to their first title being a massive failure.
After playing through Flower's first title, Tomoya realizes that his co-workers don't know anything about eroge, lacking the insight and understanding needed to make a good game. After some nudging from the president of Flower's parent company and some soul searching of his own, our protagonist takes it upon himself to save Flower by teaching the four girls on staff the ins and outs of what makes an eroge good. The story thus focuses on Tomoya's role as a psuedo-consultant while getting to know the four heroines of the story as the player is given an interesting look at the world of eroge development.

Информационные ссылки: AniDB - MAL - World Art

Качество видео: 4x DVD5
Формат видео: DVD Video
Видео кодек: MPEG2
Аудио кодек: AC3
Видео: 720х480, (16:9), 29,970 кадров/сек, ~ 5000 Кбит/сек, NTSC
Аудио №1: JAP, AC-3, 2 канала, 192 Кбит/сек, 48,0 КГц
Аудио №2: JAP, AC-3, 2 канала, 192 Кбит/сек, 48,0 КГц (на 3-м и 4-м диске, доп. звуковая дорожка)
Общее
Полное имя : J:\VIDEO_TS\VTS_01_1.VOB
Формат : MPEG-PS
Размер файла : 1024 Мбайт
Продолжительность : 19 м.
Общий поток : 7528 Кбит/сек

Видео
Идентификатор : 224 (0xE0)
Формат : MPEG Video
Версия формата : Version 2
Профиль формата : Main@Main
Параметр BVOP формата : Да
Параметр матрицы формата : Выборочная
Параметр GOP формата : Variable
Продолжительность : 19 м.
Битрейт : 7200 Кбит/сек
Ширина : 720 пикселей
Высота : 480 пикселей
Соотношение сторон : 16:9
Частота кадров : 29,970 кадров/сек
Стандарт вещания : NTSC
Цветовое пространство : YUV
Субдискретизация насыщенности : 4:2:0
Битовая глубина : 8 бит
Тип развёртки : Чересстрочная
Порядок развёртки : Верхнее поле первое
Метод сжатия : С потерями
Бит/(Пиксели*Кадры) : 0.695
Временной код первого кадра : 01:00:00:00
Оригинал временного кода : Group of pictures header
Размер потока : 977 Мбайт (95%)

Аудио
Идентификатор : 189 (0xBD)-128 (0x80)
Формат : AC-3
Формат/Информация : Audio Coding 3
Расширение режима : CM (complete main)
Параметр Endianness формата : Big
Режим смешивания : DVD-Video
Продолжительность : 19 м.
Вид битрейта : Постоянный
Битрейт : 192 Кбит/сек
Каналы : 2 канала
Расположение каналов : Front: L R
Частота : 48,0 КГц
Битовая глубина : 16 бит
Метод сжатия : С потерями
Размер потока : 26,1 Мбайт (3%)

Меню


Трекер:  [ 04-Фев-2014 16:12 ]

  

Скачать .torrent

Размер .torrent файла 37 KB


Размер: 14.68 GB
Хэш (hash) релиза: e968a95f4d2a4f3244d85f691a16600471790cb0

Еще никто не оставлял запись к записи скачать торрент Eroge! H mo Game mo Kaihatsu Zanmai Порноигры! С головой — и в секс, и в разработку! . Будь первым!

!Обратная связь