Скачать порно через торрент Himekishi Olivia Принцесса-Рыцарь Оливия UnionPeer.org бесплатно онлайн HD качество

Скачать новое порно 2015, 2014 новинки через торрент UnionPeer.org

Порно торрент бесплатно ЮнионПир.орг

Если у вас наблюдаются проблемы со скриншотами, переходом по ссылками, скачиванием торрентов - проблемы в блокировщике рекламы AdBlock. #хорошегоДня!


Статистика раздачи
Размер:  1.56 GB   |    Зарегистрирован:  3 года 9 месяцев   |    .torrent скачан:  389 раз   |   
Раздают:  1  
   
Загрузка...
 
Автор Сообщение

Galfimbul

avatar Galfimbul


Himekishi Olivia / 姫騎士オリヴィア / Принцесса-Рыцарь Оливия

Год производства: 2013 г.
Жанр: Anal sex, Bondage, Big tits, Group sex, Oral sex, X-Ray, Fantasy, Rape, Monsters, Princess, Tentacles
Серии: ep. 1
Продолжительность: 1х~25 min + 4 min трейлеры
Цензура: Есть

Озвучка: Японская (Оригинальная)

Режиссер: Kimura Takeshi
Автор оригинала: Silky`s
Студия: MS Pictures

Описание RUS: Как и все принцессы в хентай Оливя становится заложницей очередного захватчика с манией величия. Стремящимся покорить мир ну или по крайней мере большую его часть, в какой-то мере ему это удаётся и он захватывает Принцессу. Путём шантажа он ставит её перед трудным выбором, сдавайся или я уничтожу твоё королевство. Взамен он пообещает не трогать её, по крайней мере пока она сама об этом не попросит. Конечно соглашаться она и не собиралась, до того момента как не узнала что её сестру терзают орки в подземелье и что бы спасти свою сестру ей приходится сделать злому принцу масаж, конечно же я шучу, отдаться этому негодяю. "Пусть даже и симпатичному" Один вопрос терзает принцессу, как орки смогли захватить крепость, ответ на этот вопрос будет в продолжении сериала где мы познакомимся с эльфийкой, которая пропустила врагов в крепость. Что она получила в замен или лучше сказать что получит мы в скором узнаем!

Описание ENG: Like all princesses hentai Olivia becomes a hostage of another invader with delusions of grandeur. Seeking to conquer the world well, or at least most of it, to some extent it succeeds, and it captures the Princess. Blackmail he puts it a difficult choice, give up or I will destroy your kingdom. Instead, he promised not to touch her, at least until she asks about it. Certainly agree it was not going to, until it does not recognize that her sister was plagued by orcs in the dungeon and that would save his sister she has to do evil prince massage, of course I'm kidding, surrender to this scoundrel." Let even cute" One question tormented princess orcs were able to capture the fortress, the answer to this question is in the sequel where we learn about the elf, who missed the enemies fortress. What she got in return, or better to say that we will get to know soon!

Информационные ссылки: AniDB - MAL - World Art
Доп. информация: На основе хентай игры от Silky's.

Качество видео: DVD5
Формат видео: DVD Video
Видео кодек: MPEG2
Аудио кодек: AC3
Видео: 720х480, (16:9), 29,970 кадров/сек, ~ 7056 Кбит/сек, NTSC
Аудио: JAP, AC-3, 2 канала, 128 Кбит/сек, 48,0 КГц
Общее
Полное имя : J:\VIDEO_TS\VTS_01_1.VOB
Формат : MPEG-PS
Размер файла : 1024 Мбайт
Продолжительность : 19 м.
Режим общего битрейта : Переменный
Общий поток : 7330 Кбит/сек
Библиотека кодирования : encoded by TMPGEnc Video Mastering Works 5 Version. 5.4.0.100

Видео
Идентификатор : 224 (0xE0)
Формат : MPEG Video
Версия формата : Version 2
Профиль формата : Main@Main
Параметр BVOP формата : Да
Параметр матрицы формата : Выборочная
Параметр GOP формата : M=3, N=16
Продолжительность : 19 м.
Вид битрейта : Переменный
Битрейт : 7056 Кбит/сек
Максимальный битрейт : 8000 Кбит/сек
Ширина : 720 пикселей
Высота : 480 пикселей
Соотношение сторон : 16:9
Частота кадров : 29,970 кадров/сек
Стандарт вещания : NTSC
Цветовое пространство : YUV
Субдискретизация насыщенности : 4:2:0
Битовая глубина : 8 бит
Тип развёртки : Чересстрочная
Порядок развёртки : Верхнее поле первое
Метод сжатия : С потерями
Бит/(Пиксели*Кадры) : 0.681
Временной код первого кадра : 00:00:00:00
Оригинал временного кода : Group of pictures header
Размер потока : 985 Мбайт (96%)
Библиотека кодирования : TMPGEnc Video Mastering Works 5 Version. 5.4.0.100
Основные цвета : BT.601 NTSC
Характеристики трансфера : BT.601
Коэффициенты матрицы : BT.601

Аудио
Идентификатор : 189 (0xBD)-128 (0x80)
Формат : AC-3
Формат/Информация : Audio Coding 3
Расширение режима : CM (complete main)
Параметр Endianness формата : Big
Режим смешивания : DVD-Video
Продолжительность : 19 м.
Вид битрейта : Постоянный
Битрейт : 128 Кбит/сек
Каналы : 2 канала
Расположение каналов : Front: L R
Частота : 48,0 КГц
Битовая глубина : 16 бит
Метод сжатия : С потерями
Размер потока : 17,9 Мбайт (2%)

Меню


Трекер:  [ 01-Фев-2014 13:44 ]

  

Скачать .torrent

Размер .torrent файла 16 KB


Размер: 1.56 GB
Хэш (hash) релиза: e6c0788e5ddc1378350209fdae9b34f981b8d40e

Еще никто не оставлял запись к записи скачать торрент Himekishi Olivia Принцесса-Рыцарь Оливия . Будь первым!

!Обратная связь