Скачать порно через торрент Kunoichi Bakumatsu Kitan The Last Kunoichi UnionPeer.org бесплатно онлайн HD качество

Скачать новое порно 2015, 2014 новинки через торрент UnionPeer.org

Порно торрент бесплатно ЮнионПир.орг

Если у вас наблюдаются проблемы со скриншотами, переходом по ссылками, скачиванием торрентов - проблемы в блокировщике рекламы AdBlock. #хорошегоДня!


Статистика раздачи
Размер:  3.81 GB   |    Зарегистрирован:  3 года 9 месяцев   |    .torrent скачан:  359 раз   |   
Раздают:  2  
   
Загрузка...
 
Автор Сообщение

Galfimbul

avatar Galfimbul


Kunoichi Bakumatsu Kitan / The Last Kunoichi / くノ一幕末奇譚 / Последняя девушка-ниндзя

Год производства: 2003 г.
Жанр: Oral sex, Rape, Ninja, Samurai, Torture
Серии: ep. 1 of 2
Продолжительность: 1х~30 min
Цензура: Отсутствует

Озвучка №1: Японская (Оригинальная)
Озвучка №2: Английская (Профессиональная, полное дублирование)
Субтитры: Английские

Режиссер: Kokubunji Sousuke
Автор оригинала: Kunitachi Yasuhide
Студия: Milky Animation Label, Dream Entertainment, ASM

Описание RUS: Судя по всему, обольстительно-смертоносные куначи (женщины-ниндзя) в списке сексуальных японских фетишей занимают не последнее место, держась наравне с "девушками в форме", вроде горничных или медсестёр, не по годам развитыми старшеклассницами и сексапильными неками. В нашем журнале упоминалось не одно аниме, в которых эти дамы выступали в качестве главных героинь, тут и "Blood Shadow", и "Kage", и даже забавная пародия под названием "Karakuri Ninja Girl". По моему мнению, основной упор тут идет на пресловутые "секс и насилие", когда одно постоянно дополняет другое.

В этой двух серийной ОВА, авторы решили рассказать о драматическом времени японской революции - крахе правительства сёгуната. Япония пребывает в смятении. Страна переполнена молодыми революционерами, с которыми теряющий власть режим ведет беспощадную борьбу, не жалея сил и средств. Одним из таких "средств" является группа женщин-ниндзя, занимающаяся уничтожением революционных лидеров, представлявших наибольшую угрозу. Разумеется, симпатичной женщине намного проще подобраться к мужчине, используя своё тело в качестве приманки, после чего покончить с ним одним ударом. Вот только некоторые из куначичи подобрались к своим мишеням слишком близко… и тут в дело в дело вступила та самая сила, которую люди зовут любовью. Сила, которой нет дела до политики, власти и интриг. После чего события начинают развиваться с особым драматизмом, ведь отдающим приказы нет дела до чувств исполнителя.

Описание ENG: The winds of revolution howl through Kyoto as the Tokugawa era comes to a violent close.
Will Kaede, Kikyoo, and Ayame follow the ninja code of honor and face their vicious destiny, or escape to another world? Will their love for each other and the men they are destined to betray effect their fate? But now, a secret command forces them to risk their lives. Their passions will ignite as our story begins...

Информационные ссылки: AniDB - MAL - World Art - ХентайМаг - ASM
Доп. информация: Без цензуры (в природе) есть только первый эпизод.

Качество видео: DVD5
Формат видео: DVD Video
Видео кодек: MPEG2
Аудио кодек: AC3
Видео: 720х480, (4:3), 29,970 кадров/сек, ~ 8000 Кбит/сек, NTSC
Аудио №1: JAP, AC-3, 2 канала, 224 Кбит/сек, 48,0 КГц
Аудио №2: ENG, AC-3, 2 канала, 192 Кбит/сек, 48,0 КГц
Доп. материалы: Трейлеры, Фотогалерея
Общее
Полное имя : J:\VIDEO_TS\VTS_02_1.VOB
Формат : MPEG-PS
Размер файла : 1024 Мбайт
Продолжительность : 16 м.
Общий поток : 8574 Кбит/сек

Видео
Идентификатор : 224 (0xE0)
Формат : MPEG Video
Версия формата : Version 2
Профиль формата : Main@Main
Параметр BVOP формата : Да
Параметр матрицы формата : Выборочная
Параметр GOP формата : M=3, N=15
Продолжительность : 16 м.
Битрейт : 8000 Кбит/сек
Ширина : 720 пикселей
Высота : 480 пикселей
Соотношение сторон : 4:3
Частота кадров : 29,970 кадров/сек
Стандарт вещания : NTSC
Цветовое пространство : YUV
Субдискретизация насыщенности : 4:2:0
Битовая глубина : 8 бит
Тип развёртки : Чересстрочная
Порядок развёртки : Верхнее поле первое
Метод сжатия : С потерями
Бит/(Пиксели*Кадры) : 0.772
Временной код первого кадра : 00:59:59:16
Оригинал временного кода : Group of pictures header
Размер потока : 954 Мбайт (93%)

Аудио #1
Идентификатор : 189 (0xBD)-128 (0x80)
Формат : AC-3
Формат/Информация : Audio Coding 3
Расширение режима : CM (complete main)
Параметр Endianness формата : Big
Режим смешивания : DVD-Video
Продолжительность : 16 м.
Вид битрейта : Постоянный
Битрейт : 224 Кбит/сек
Каналы : 2 канала
Расположение каналов : Front: L R
Частота : 48,0 КГц
Битовая глубина : 16 бит
Метод сжатия : С потерями
Задержка видео : -67 мс.
Размер потока : 26,7 Мбайт (3%)

Аудио #2
Идентификатор : 189 (0xBD)-129 (0x81)
Формат : AC-3
Формат/Информация : Audio Coding 3
Расширение режима : CM (complete main)
Параметр Endianness формата : Big
Режим смешивания : DVD-Video
Продолжительность : 16 м.
Вид битрейта : Постоянный
Битрейт : 192 Кбит/сек
Каналы : 2 канала
Расположение каналов : Front: L R
Частота : 48,0 КГц
Битовая глубина : 16 бит
Метод сжатия : С потерями
Задержка видео : -67 мс.
Размер потока : 22,9 Мбайт (2%)

Текст
Идентификатор : 189 (0xBD)-32 (0x20)
Формат : RLE
Формат/Информация : Run-length encoding
Режим смешивания : DVD-Video

Меню


Трекер:  [ 29-Янв-2014 13:59 ]

  

Скачать .torrent

Размер .torrent файла 19 KB


Размер: 3.81 GB
Хэш (hash) релиза: d12df64a2dc4013f405f18da624ccb3904aa9426

Еще никто не оставлял запись к записи скачать торрент Kunoichi Bakumatsu Kitan The Last Kunoichi . Будь первым!

!Обратная связь