Скачать порно через торрент Otome Chibaku Yuugi: Kutsujoku Baigaeshi ADV Disgrace Return Play UnionPeer.org бесплатно онлайн HD качество

Скачать новое порно 2015, 2014 новинки через торрент UnionPeer.org

Порно торрент бесплатно ЮнионПир.орг

Если у вас наблюдаются проблемы со скриншотами, переходом по ссылками, скачиванием торрентов - проблемы в блокировщике рекламы AdBlock. #хорошегоДня!


Статистика раздачи
Размер:  3.26 GB   |    Зарегистрирован:  3 года 9 месяцев   |    .torrent скачан:  355 раз   |   
Раздают:  1  
   
Загрузка...
 
Автор Сообщение

Galfimbul

avatar Galfimbul


Otome Chibaku Yuugi: Kutsujoku Baigaeshi ADV / Disgrace Return Play / 乙女恥曝遊戯 屈辱倍返しADV / Расплата за унижения / Игры стыда

Год производства: 2010 г.
Жанр: Anal sex, BDSM, Big tits, Oral sex, School, Rape, Students, Virgin
Серии: ep. 1-2 of 2
Продолжительность: 2x~29 min
Цензура: Есть

Озвучка: Японская (Оригинальная)

Режиссер: Yokoyama Hitomi
Автор оригинала: Guilty
Студия: Suzuki Mirano

Описание RUS: Ночь, темный коридор, по которому осторожно движется девчонка с закрытыми повязкой глазами. За кадром звучит тревожная музыка, а затем появляется ОН - одетый в черное и с маской на лице. Тот, кто когда-то был обычным школьником, не слишком отличавшийся от остальных. Но однажды кое-кто из одноклассников с ним скверно обошёлся, и Хигути спустя некоторое время решил отплатить той же монетой, только с процентами... Ну а дальше всё, как и полагается в подобных хентай историях - немного хитрости и коварства, и вот первая "муха" уже попалась в сети мстителя. Она будет первой в его списке, и эта ночь запомнится ей надолго. Участь остальных - не за горами..

Описание ENG: Kaoru is a high school student. He has an old friend, Nanao, at the same school. She has been giving him sexually insulting orders in front of other students and he has always obeyed it. But one day, his patience runs out and decides to take revenge on her. While he still plans how to do it, he accidentally witnesses Mayu, his classmate, shoplifting. He makes up his mind to use Mayu as his pawn.

Информационные ссылки: AniDB - MAL - World Art - ХентайМаг

Качество видео: 2x DVD5
Формат видео: DVD Video
Видео кодек: MPEG2
Аудио кодек: AC3
Видео: 720х480, (16:9), 29,970 кадров/сек, ~ 6500 Кбит/сек, NTSC
Аудио: JAP, AC-3, 2 канала, 192 Кбит/сек, 48,0 КГц
Общее
Полное имя : J:\VIDEO_TS\VTS_01_1.VOB
Формат : MPEG-PS
Размер файла : 1024 Мбайт
Продолжительность : 16 м.
Режим общего битрейта : Переменный
Общий поток : 8733 Кбит/сек

Видео
Идентификатор : 224 (0xE0)
Формат : MPEG Video
Версия формата : Version 2
Профиль формата : Main@Main
Параметр BVOP формата : Да
Параметр матрицы формата : Выборочная
Параметр GOP формата : Variable
Продолжительность : 16 м.
Вид битрейта : Переменный
Битрейт : 8367 Кбит/сек
Максимальный битрейт : 9800 Кбит/сек
Ширина : 720 пикселей
Высота : 480 пикселей
Соотношение сторон : 16:9
Частота кадров : 29,970 кадров/сек
Стандарт вещания : NTSC
Цветовое пространство : YUV
Субдискретизация насыщенности : 4:2:0
Битовая глубина : 8 бит
Тип развёртки : Чересстрочная
Порядок развёртки : Верхнее поле первое
Метод сжатия : С потерями
Бит/(Пиксели*Кадры) : 0.808
Временной код первого кадра : 01:00:12:00
Оригинал временного кода : Group of pictures header
Размер потока : 981 Мбайт (96%)

Аудио
Идентификатор : 189 (0xBD)-128 (0x80)
Формат : AC-3
Формат/Информация : Audio Coding 3
Расширение режима : CM (complete main)
Параметр Endianness формата : Big
Режим смешивания : DVD-Video
Продолжительность : 16 м.
Вид битрейта : Постоянный
Битрейт : 192 Кбит/сек
Каналы : 2 канала
Расположение каналов : Front: L R
Частота : 48,0 КГц
Битовая глубина : 16 бит
Метод сжатия : С потерями
Размер потока : 22,5 Мбайт (2%)

Меню


Трекер:  [ 26-Янв-2014 13:01 ]

  

Скачать .torrent

Размер .torrent файла 17 KB


Размер: 3.26 GB
Хэш (hash) релиза: c0e37fa417281bb40f947a06d2d67770fcb12e7f

Еще никто не оставлял запись к записи скачать торрент Otome Chibaku Yuugi: Kutsujoku Baigaeshi ADV Disgrace Return Play . Будь первым!

!Обратная связь