Скачать через торрент музыку бесплатно без регистрации torrent

Статистика раздачи
Размер:  303 MB   |    Зарегистрирован:  3 года 4 месяца   |    .torrent скачан:  212 раз   |   
Раздают:  1  
   
 
Автор Сообщение

Galfimbul

avatar Galfimbul


Karavai Quartet & Vladimir Yakovlev / Music of a Stranger

Жанр: Folk
Носитель: CD
Страна-производитель диска: Russia
Год издания: 2003
Издатель (лейбл): TV-Radio Company T7, Perm
Страна: Russia
Аудиокодек: FLAC (*.flac)
Тип рипа: tracks+.cue
Битрейт аудио: lossless
Продолжительность: 1:00:51.
Источник (релизер): (my disc) clustert
Наличие сканов в содержимом раздачи: да
Треклист:
01. Branholm. Trip to Hervé''s 3:13
02. Jizique [0:09:30.66]
03. Ebbe Skammelson 3:27
04. En Vinterdag 3:40
05. Oblivion 4:03
06. Libertango 3:26
07. Michelle 3:10
08. Venus 3:18
09. Dolina-Dolinushka 6:47
10. Chukotski Dance 3:10
11. Gutsulski Dance 4:55
12. Na ulitse dozhdik 6:29
13. Durachina 5:36
Exact Audio Copy V1.0 beta 3 from 29. August 2011

Отчёт EAC об извлечении, выполненном 24. января 2014, 19:40

Karavai / Music of a Stranger

Дисковод: ASUS DRW-1814BLT Adapter: 4 ID: 0

Режим чтения : ДостоверностьИспользование точного потока : ДаОтключение кэша аудио : ДаИспользование указателей C2 : Нет

Коррекция смещения при чтении : 6Способность читать области Lead-in и Lead-out : НетЗаполнение пропущенных сэмплов тишиной : ДаУдаление блоков с тишиной в начале и конце : НетПри вычислениях CRC использовались нулевые сэмплы : ДаИнтерфейс : Встроенный Win32-интерфейс для Win NT/2000Обработка зазоров : Добавлено к предыдущему треку

Выходной формат : Пользовательский кодировщикВыбранный битрейт : 128 kBit/sКачество : ВысокийДобавление ID3-тега : НетУтилита сжатия : C:\Program Files\Exact Audio Copy\Flac\flac.exeДополнительные параметры : -V -8 -T "Genre=%genre%" -T "Artist=%artist%" -T "Title=%title%" -T "Album=%albumtitle%" -T "Date=%year%" -T "Tracknumber=%tracknr%" -T "Comment=EAC1.0b2 FLAC -8" %source%

TOC извлечённого CD

Трек | Старт | Длительность | Начальный сектор | Конечный сектор --------------------------------------------------------------------- 1 | 0:00.00 | 3:13.25 | 0 | 14499 2 | 3:13.25 | 9:30.66 | 14500 | 57315 3 | 12:44.16 | 3:27.08 | 57316 | 72848 4 | 16:11.24 | 3:40.64 | 72849 | 89412 5 | 19:52.13 | 4:03.25 | 89413 | 107662 6 | 23:55.38 | 3:26.53 | 107663 | 123165 7 | 27:22.16 | 3:10.47 | 123166 | 137462 8 | 30:32.63 | 3:18.23 | 137463 | 152335 9 | 33:51.11 | 6:47.27 | 152336 | 182887 10 | 40:38.38 | 3:10.71 | 182888 | 197208 11 | 43:49.34 | 4:55.34 | 197209 | 219367 12 | 48:44.68 | 6:29.36 | 219368 | 248578 13 | 55:14.29 | 5:36.47 | 248579 | 273825

Трек 1

Имя файла R:\Раздача 9\Каравай и Владимир Яковлев - 2003 - Музыка странствий\01 Branholm. Trip to Hervé''s.wav

Длина предзазора 0:00:02.00

Пиковый уровень 99.9 % Скорость извлечения 5.1 X Качество трека 100.0 % CRC теста 4D49C391 CRC копии 4D49C391 Копирование... OK

Трек 2

Имя файла R:\Раздача 9\Каравай и Владимир Яковлев - 2003 - Музыка странствий\02 Jizique.wav

Длина предзазора 0:00:02.00

Пиковый уровень 99.9 % Скорость извлечения 6.7 X Качество трека 100.0 % CRC теста 7E2EA2E6 CRC копии 7E2EA2E6 Копирование... OK

Трек 3

Имя файла R:\Раздача 9\Каравай и Владимир Яковлев - 2003 - Музыка странствий\03 Ebbe Skammelson.wav

Длина предзазора 0:00:02.00

Пиковый уровень 99.9 % Скорость извлечения 6.7 X Качество трека 100.0 % CRC теста 76564BB1 CRC копии 76564BB1 Копирование... OK

Трек 4

Имя файла R:\Раздача 9\Каравай и Владимир Яковлев - 2003 - Музыка странствий\04 En Vinterdag.wav

Длина предзазора 0:00:02.00

Пиковый уровень 99.9 % Скорость извлечения 7.2 X Качество трека 100.0 % CRC теста 7BE4556A CRC копии 7BE4556A Копирование... OK

Трек 5

Имя файла R:\Раздача 9\Каравай и Владимир Яковлев - 2003 - Музыка странствий\05 Oblivion.wav

Длина предзазора 0:00:02.00

Пиковый уровень 99.9 % Скорость извлечения 6.8 X Качество трека 99.9 % CRC теста B1DFDEEB CRC копии B1DFDEEB Копирование... OK

Трек 6

Имя файла R:\Раздача 9\Каравай и Владимир Яковлев - 2003 - Музыка странствий\06 Libertango.wav

Длина предзазора 0:00:02.00

Пиковый уровень 99.9 % Скорость извлечения 7.9 X Качество трека 100.0 % CRC теста E25F26E6 CRC копии E25F26E6 Копирование... OK

Трек 7

Имя файла R:\Раздача 9\Каравай и Владимир Яковлев - 2003 - Музыка странствий\07 Michelle.wav

Длина предзазора 0:00:02.00

Пиковый уровень 99.9 % Скорость извлечения 8.1 X Качество трека 100.0 % CRC теста 19DC13C4 CRC копии 19DC13C4 Копирование... OK

Трек 8

Имя файла R:\Раздача 9\Каравай и Владимир Яковлев - 2003 - Музыка странствий\08 Venus.wav

Длина предзазора 0:00:02.00

Пиковый уровень 99.9 % Скорость извлечения 8.4 X Качество трека 100.0 % CRC теста 02F01FDC CRC копии 02F01FDC Копирование... OK

Трек 9

Имя файла R:\Раздача 9\Каравай и Владимир Яковлев - 2003 - Музыка странствий\09 Dolina-Dolinushka.wav

Длина предзазора 0:00:02.00

Пиковый уровень 99.9 % Скорость извлечения 8.8 X Качество трека 99.9 % CRC теста 00F09BFF CRC копии 00F09BFF Копирование... OK

Трек 10

Имя файла R:\Раздача 9\Каравай и Владимир Яковлев - 2003 - Музыка странствий\10 Chukotski Dance.wav

Длина предзазора 0:00:02.00

Пиковый уровень 99.9 % Скорость извлечения 9.1 X Качество трека 100.0 % CRC теста 175F37D2 CRC копии 175F37D2 Копирование... OK

Трек 11

Имя файла R:\Раздача 9\Каравай и Владимир Яковлев - 2003 - Музыка странствий\11 Gutsulski Dance.wav

Длина предзазора 0:00:02.00

Пиковый уровень 99.9 % Скорость извлечения 8.9 X Качество трека 99.9 % CRC теста 355B6A42 CRC копии 355B6A42 Копирование... OK

Трек 12

Имя файла R:\Раздача 9\Каравай и Владимир Яковлев - 2003 - Музыка странствий\12 Na ulitse dozhdik.wav

Длина предзазора 0:00:02.00

Пиковый уровень 99.9 % Скорость извлечения 10.5 X Качество трека 100.0 % CRC теста 5E5BDCB4 CRC копии 5E5BDCB4 Копирование... OK

Трек 13

Имя файла R:\Раздача 9\Каравай и Владимир Яковлев - 2003 - Музыка странствий\13 Durachina.wav

Длина предзазора 0:00:02.00

Пиковый уровень 99.9 % Скорость извлечения 9.8 X Качество трека 99.9 % CRC теста 07FFB981 CRC копии 07FFB981 Копирование... OK

Ошибок не произошло

Конец отчёта

==== Контрольная сумма отчёта 33A3050DD7A8A887D716C846693BF04CCBBDB505E88ABD1D1E47C4CEF7D1E7B1 ====
REM GENRE FolkREM DATE 2003REM DISCID B20E430DREM COMMENT "ExactAudioCopy v1.0b3"PERFORMER "Karavai"TITLE "Music of a Stranger"FILE "01 Branholm. Trip to Herve''s.wav" WAVE TRACK 01 AUDIO TITLE "Branholm. Trip to Herve''s" PERFORMER "Karavai" INDEX 01 00:00:00 TRACK 02 AUDIO TITLE "Jizique" PERFORMER "Karavai" INDEX 00 03:11:25FILE "02 Jizique.wav" WAVE INDEX 01 00:00:00 TRACK 03 AUDIO TITLE "Ebbe Skammelson" PERFORMER "Karavai" INDEX 00 09:28:66FILE "03 Ebbe Skammelson.wav" WAVE INDEX 01 00:00:00 TRACK 04 AUDIO TITLE "En Vinterdag" PERFORMER "Karavai" INDEX 00 03:25:08FILE "04 En Vinterdag.wav" WAVE INDEX 01 00:00:00 TRACK 05 AUDIO TITLE "Oblivion" PERFORMER "Karavai" INDEX 00 03:38:64FILE "05 Oblivion.wav" WAVE INDEX 01 00:00:00 TRACK 06 AUDIO TITLE "Libertango" PERFORMER "Karavai" INDEX 00 04:01:25FILE "06 Libertango.wav" WAVE INDEX 01 00:00:00 TRACK 07 AUDIO TITLE "Michelle" PERFORMER "Karavai" INDEX 00 03:24:53FILE "07 Michelle.wav" WAVE INDEX 01 00:00:00 TRACK 08 AUDIO TITLE "Venus" PERFORMER "Karavai" INDEX 00 03:08:47FILE "08 Venus.wav" WAVE INDEX 01 00:00:00 TRACK 09 AUDIO TITLE "Dolina-Dolinushka" PERFORMER "Karavai" INDEX 00 03:16:23FILE "09 Dolina-Dolinushka.wav" WAVE INDEX 01 00:00:00 TRACK 10 AUDIO TITLE "Chukotski Dance" PERFORMER "Karavai" INDEX 00 06:45:27FILE "10 Chukotski Dance.wav" WAVE INDEX 01 00:00:00 TRACK 11 AUDIO TITLE "Gutsulski Dance" PERFORMER "Karavai" INDEX 00 03:08:71FILE "11 Gutsulski Dance.wav" WAVE INDEX 01 00:00:00 TRACK 12 AUDIO TITLE "Na ulitse dozhdik" PERFORMER "Karavai" INDEX 00 04:53:34FILE "12 Na ulitse dozhdik.wav" WAVE INDEX 01 00:00:00 TRACK 13 AUDIO TITLE "Durachina" PERFORMER "Karavai" INDEX 00 06:27:36FILE "13 Durachina.wav" WAVE INDEX 01 00:00:00
Квартет "КАРАВАЙ":
Олег Згогурин - балалайка прима,
Татьяна Куликова - домра альт,
Анна Тальникова - домра прима,
Станислав Юнкинд - балалайка бас,
и
Владимир Яковлев - ударные, перкуссия.


Трекер:  [ 24-Янв-2014 19:07 ]

  

Скачать .torrent

Размер .torrent файла 13 KB


Размер: 303 MB
Хэш (hash) релиза: a31d960b136918db8a540b0738968daedcb6cf2a

Еще никто не оставлял запись к записи скачать торрент . Будь первым!

!Обратная связь