Скачать порно через торрент Hard Activity sex and sport UnionPeer.org бесплатно онлайн HD качество

Скачать новое порно 2015, 2014 новинки через торрент UnionPeer.org

Порно торрент бесплатно ЮнионПир.орг

Если у вас наблюдаются проблемы со скриншотами, переходом по ссылками, скачиванием торрентов - проблемы в блокировщике рекламы AdBlock. #хорошегоДня!


Статистика раздачи
Размер:  1.08 GB   |    Зарегистрирован:  3 года 6 месяцев   |    .torrent скачан:  113 раз   |   
Раздают:  1  
   
Загрузка...
 
Автор Сообщение

Galfimbul

avatar Galfimbul


Hard Activity sex and sport

Год производства: 2014 г.
Страна: ITA
Жанр: Anal,Oral,Bigtits
Продолжительность: 1h 52mn
Язык: Английский

Режиссер: J.F. Romagnoli
В ролях: Valentina Canali, Abbie Cat, Liza Del Sierra, Bettina Di Capri, Ivana Sugar, Kerry

Доп. информация:
Format : AVI
Format/Info : Audio Video Interleave
File size : 1.08 GiB
Duration : 1h 52mn
Overall bit rate : 1 368 Kbps
Writing application : VirtualDubMod 1.5.10.2 (build 2540/release)
Writing library : VirtualDubMod build 2540/release

Video
ID : 0
Format : MPEG-4 Visual
Format profile : Advanced Simple@L5
Format settings, BVOP : 2
Format settings, QPel : No
Format settings, GMC : No warppoints
Format settings, Matrix : Default (H.263)
Codec ID : XVID
Codec ID/Hint : XviD
Duration : 1h 52mn
Bit rate : 1 303 Kbps
Width : 608 pixels
Height : 336 pixels
Display aspect ratio : 16:9
Frame rate : 25.000 fps
Color space : YUV
Chroma subsampling : 4:2:0
Bit depth : 8 bits
Scan type : Progressive
Compression mode : Lossy
Bits/(Pixel*Frame) : 0.255
Stream size : 1.03 GiB (95%)
Writing library : XviD 64

Audio
ID : 1
Format : MPEG Audio
Format version : Version 1
Format profile : Layer 3
Mode : Joint stereo
Mode extension : MS Stereo
Codec ID : 55
Codec ID/Hint : MP3
Duration : 1h 52mn
Bit rate mode : Constant
Bit rate : 56.0 Kbps
Channel(s) : 2 channels
Sampling rate : 44.1 KHz
Compression mode : Lossy
Stream size : 45.3 MiB (4%)
Alignment : Split accross interleaves
Interleave, duration : 40 ms (1.00 video frame)
Interleave, preload duration : 500 ms
Качество видео: DVDRip


Трекер:  [ 24-Янв-2014 18:33 ]

  

Скачать .torrent

Размер .torrent файла 11 KB


Размер: 1.08 GB
Хэш (hash) релиза: e10e2bc8da7e5e2550745d404c62238bbaa07906

Еще никто не оставлял запись к записи скачать торрент Hard Activity sex and sport . Будь первым!

!Обратная связь