Скачать через торрент музыку бесплатно без регистрации torrent

Если у вас наблюдаются проблемы со скриншотами, переходом по ссылками, скачиванием торрентов - проблемы в блокировщике рекламы AdBlock. #хорошегоДня!


Статистика раздачи
Размер:  1.09 GB   |    Зарегистрирован:  3 года 7 месяцев   |    .torrent скачан:  353 раза   |   
Раздают:  2  
   
Загрузка...
 
Автор Сообщение

Galfimbul

avatar Galfimbul


Various Artists - Max Mix 2012

Жанр: Eurodance
Носитель: CD
Страна-производитель диска: Spain
Год издания: 2012
Издатель (лейбл): Blanco Y Negro
Номер по каталогу: MXCD 2616 (CB)
Страна: Europe
Аудиокодек: FLAC (*.flac)
Тип рипа: image+.cue
Битрейт аудио: lossless
Продолжительность: 75:13 + 73:47
Источник (релизер): Рип своего диска
Наличие сканов в содержимом раздачи: да
Треклист:

CD1
01. Various / Max Mix 2012 Megamix By Toni Peret [0:10:55.72]
02. Elena Gheorghe / Your Captain Tonight (Radio Edit) [0:03:14.52]
03. R.I.O. Feat. U-Jean / Animal (Video Edit) [0:03:32.35]
04. Bob Sinclar Feat. Gilbere Forte, Dragonfly & Fatman Scoop / Rock The Boat (Radio Edit) [0:03:08.57]
05. R.J. Feat. Pitbull / U Know It Ain''t Love (David May Original Radio Mix) [0:03:18.46]
06. Chuckie Feat. Gregor Salto / What Happens In Vegas (Radio Edit) [0:02:46.00]
07. Martin Solveig & Dragonette Feat. Idoling!!! / Big In Japan (Radio Edit) [0:02:45.32]
08. Radio Killer / Don''t Let The Music End (Original Radio Edit) [0:02:56.42]
09. Bingo Players / Cry (Just A Little) (Radio Mix) [0:03:03.73]
10. Corina / Munky Funky (Radio Edit) [0:03:21.00]
11. Dony Feat. Elena / Hot Girls (Radio Edit) [0:03:40.23]
12. Jordi Mb Feat. Jason Rene / Lady (Say Hey) (Euro Mix) [0:03:00.04]
13. Celia Feat. Kaye Styles / Is It Love (Sahara Remix New Radio) [0:02:53.26]
14. R.I.O. Feat. U-Jean / Turn This Club Around (Video Edit) [0:03:20.31]
15. Sarvi / Amore (Chuckie Radio Mix) [0:03:26.26]
16. Elena / Midnight Sun (Radio Edit) [0:03:15.13]
17. Dj Antoine Vs. Timati Feat. Kalenna / Welcome To St. Tropez (Dj Antoine Vs. Mad Mark Remix) [0:06:16.19]
18. Global Deejays / Hardcore Vibes (Original Mix) [0:04:52.13]
19. Mischa Daniels & Tara Mcdonald / Beats For You (Original Mix) [0:05:25.62]

CD2
01. Ian Carey & Rosette Feat. Timbaland & Brasco / Amnesia (Extended Mix) [0:04:33.57]
02. Fragma / Toca’s Miracle (Ralph Good & Chris Gant Remix) [0:06:33.59]
03. Dorotea Mele Vs. Gabry Ponte / Lovely On My Hand (Alex Berti Remix) [0:06:39.73]
04. Alyssa Reid Feat. Jump Smokers / Alone Again (VooDoo & Serano Remix) [0:05:18.05]
05. Redd Feat. Qwote & Pitbull / Bedroom (David May Extended Mix) [0:04:21.59]
06. Corona Feat. Mikey P. / Hurry Up (Javi Mula Extended) [0:04:45.59]
07. The Orion Experience / NYC Girl (Federico Scavo Remix) [0:07:13.17]
08. Benny Benassi vs Marshall Jefferson / Move Your Body 2012 (Extended) [0:05:18.61]
09. DJ Eddy-N Feat. IVA & Heat / Be Free (Molella Remix) [0:06:31.74]
10. Courtney Argue Vs Jeremy Greene Feat. Pitbull / Make It Rain (RLS & 2Frenchguys Extended Remix) [0:06:42.42]
11. Jack Smeraglia Vs. G.E.M. Feat. Dr. Feelx / Yo Te Siento Asi 2012 (Bottai & Ripari Extended) [0:05:12.08]
12. Abel Almena Pres. Millennium / Candy Girl (Miguel Valbuena Dance Remix) [0:05:35.33]
13. Lolita Jolie / La Premiere Fois (Bacefook Remix) [0:05:00.42]
Exact Audio Copy V1.0 beta 3 from 29. August 2011

Отчёт EAC об извлечении, выполненном 23. января 2014, 18:27

- / Max Mix 2012 CD1

Дисковод: HL-DT-STDVD-RAM GH22NP20 Adapter: 0 ID: 0

Режим чтения : ДостоверностьИспользование точного потока : ДаОтключение кэша аудио : ДаИспользование указателей C2 : Нет

Коррекция смещения при чтении : 102Способность читать области Lead-in и Lead-out : НетЗаполнение пропущенных сэмплов тишиной : ДаУдаление блоков с тишиной в начале и конце : НетПри вычислениях CRC использовались нулевые сэмплы : ДаИнтерфейс : Встроенный Win32-интерфейс для Win NT/2000

Выходной формат : Внутренние WAV-операцииФормат сэмплов : 44.100 Гц; 16 бит; стерео

TOC извлечённого CD

Трек | Старт | Длительность | Начальный сектор | Конечный сектор --------------------------------------------------------------------- 1 | 0:00.00 | 10:55.72 | 0 | 49196 2 | 10:55.72 | 3:14.52 | 49197 | 63798 3 | 14:10.49 | 3:32.35 | 63799 | 79733 4 | 17:43.09 | 3:08.57 | 79734 | 93890 5 | 20:51.66 | 3:18.46 | 93891 | 108786 6 | 24:10.37 | 2:46.00 | 108787 | 121236 7 | 26:56.37 | 2:45.32 | 121237 | 133643 8 | 29:41.69 | 2:56.42 | 133644 | 146885 9 | 32:38.36 | 3:03.73 | 146886 | 160683 10 | 35:42.34 | 3:21.00 | 160684 | 175758 11 | 39:03.34 | 3:40.23 | 175759 | 192281 12 | 42:43.57 | 3:00.04 | 192282 | 205785 13 | 45:43.61 | 2:53.26 | 205786 | 218786 14 | 48:37.12 | 3:20.31 | 218787 | 233817 15 | 51:57.43 | 3:26.26 | 233818 | 249293 16 | 55:23.69 | 3:15.13 | 249294 | 263931 17 | 58:39.07 | 6:16.19 | 263932 | 292150 18 | 64:55.26 | 4:52.13 | 292151 | 314063 19 | 69:47.39 | 5:25.62 | 314064 | 338500

Характеристики диапазона извлечения и сообщения об ошибках

Выбранный диапазон

Имя файла D:\Torrents\Various - Max Mix 2012\Various - Max Mix 2012 CD1.wav

Пиковый уровень 100.0 % Скорость извлечения 3.1 X Качество диапазона 100.0 % CRC теста D3834E87 CRC копии D3834E87 Копирование... OK

Ошибок не произошло

AccurateRip: сводка

Трек 1 отсутствует в базе данныхТрек 2 отсутствует в базе данныхТрек 3 отсутствует в базе данныхТрек 4 отсутствует в базе данныхТрек 5 отсутствует в базе данныхТрек 6 отсутствует в базе данныхТрек 7 отсутствует в базе данныхТрек 8 отсутствует в базе данныхТрек 9 отсутствует в базе данныхТрек 10 отсутствует в базе данныхТрек 11 отсутствует в базе данныхТрек 12 отсутствует в базе данныхТрек 13 отсутствует в базе данныхТрек 14 отсутствует в базе данныхТрек 15 отсутствует в базе данныхТрек 16 отсутствует в базе данныхТрек 17 отсутствует в базе данныхТрек 18 отсутствует в базе данныхТрек 19 отсутствует в базе данных

Ни одного трека нет в базе AccurateRip

Конец отчёта

---- CUETools DB Plugin V2.1.3

[CTDB TOCID: EGZ.QCiXARYPMNzSS6X_1hzfF6Y-] found, Submit result: already submitted[5a823d4c] (1/1) Accurately ripped

==== Контрольная сумма отчёта 35B8EB8DB87A9FF88232108C5CAD4F690EE080580D845F39181622055379B3AD ====
Exact Audio Copy V1.0 beta 3 from 29. August 2011

Отчёт EAC об извлечении, выполненном 23. января 2014, 19:40

Various / Max Mix 2012 CD2

Дисковод: HL-DT-STDVD-RAM GH22NP20 Adapter: 0 ID: 0

Режим чтения : ДостоверностьИспользование точного потока : ДаОтключение кэша аудио : ДаИспользование указателей C2 : Нет

Коррекция смещения при чтении : 102Способность читать области Lead-in и Lead-out : НетЗаполнение пропущенных сэмплов тишиной : ДаУдаление блоков с тишиной в начале и конце : НетПри вычислениях CRC использовались нулевые сэмплы : ДаИнтерфейс : Встроенный Win32-интерфейс для Win NT/2000

Выходной формат : Внутренние WAV-операцииФормат сэмплов : 44.100 Гц; 16 бит; стерео

TOC извлечённого CD

Трек | Старт | Длительность | Начальный сектор | Конечный сектор --------------------------------------------------------------------- 1 | 0:00.00 | 4:33.57 | 0 | 20531 2 | 4:33.57 | 6:33.59 | 20532 | 50065 3 | 11:07.41 | 6:39.73 | 50066 | 80063 4 | 17:47.39 | 5:18.05 | 80064 | 103918 5 | 23:05.44 | 4:21.59 | 103919 | 123552 6 | 27:27.28 | 4:45.59 | 123553 | 144986 7 | 32:13.12 | 7:13.17 | 144987 | 177478 8 | 39:26.29 | 5:18.61 | 177479 | 201389 9 | 44:45.15 | 6:31.74 | 201390 | 230788 10 | 51:17.14 | 6:42.42 | 230789 | 260980 11 | 57:59.56 | 5:12.08 | 260981 | 284388 12 | 63:11.64 | 5:35.33 | 284389 | 309546 13 | 68:47.22 | 5:00.42 | 309547 | 332088

Характеристики диапазона извлечения и сообщения об ошибках

Выбранный диапазон

Имя файла D:\Torrents\Various - Max Mix 2012\Various - Max Mix 2012 CD2.wav

Пиковый уровень 100.0 % Скорость извлечения 3.0 X Качество диапазона 100.0 % CRC теста 8FA1A350 CRC копии 8FA1A350 Копирование... OK

Ошибок не произошло

AccurateRip: сводка

Трек 1 отсутствует в базе данныхТрек 2 отсутствует в базе данныхТрек 3 отсутствует в базе данныхТрек 4 отсутствует в базе данныхТрек 5 отсутствует в базе данныхТрек 6 отсутствует в базе данныхТрек 7 отсутствует в базе данныхТрек 8 отсутствует в базе данныхТрек 9 отсутствует в базе данныхТрек 10 отсутствует в базе данныхТрек 11 отсутствует в базе данныхТрек 12 отсутствует в базе данныхТрек 13 отсутствует в базе данных

Ни одного трека нет в базе AccurateRip

Конец отчёта

---- CUETools DB Plugin V2.1.3

[CTDB TOCID: W1aZPY9rhggyduPhgdLPiWY1YMA-] found, Submit result: already submitted[d0bab17f] (1/1) Accurately ripped

==== Контрольная сумма отчёта 9C3706C24E5E6D2C8BB4723D414C3CF2958F5B96C4DE43AC7133B04E8F7C9727 ====
REM GENRE DanceREM DATE 2012REM DISCID 2311A113REM COMMENT "ExactAudioCopy v1.0b3"PERFORMER ""TITLE "Max Mix 2012 CD1"FILE "Various - Max Mix 2012 CD1.flac" WAVE TRACK 01 AUDIO TITLE "Max Mix 2012 Megamix By Toni Peret" PERFORMER "Various" FLAGS DCP INDEX 01 00:00:00 INDEX 02 03:26:18 TRACK 02 AUDIO TITLE "Your Captain Tonight (Radio Edit)" PERFORMER "Elena Gheorghe" FLAGS DCP INDEX 00 10:54:71 INDEX 01 10:55:72 TRACK 03 AUDIO TITLE "Animal (Video Edit)" PERFORMER "R.I.O. Feat. U-Jean" FLAGS DCP INDEX 01 14:10:49 TRACK 04 AUDIO TITLE "Rock The Boat (Radio Edit)" PERFORMER "Bob Sinclar Feat. Gilbere Forte, Dragonfly & Fatman Scoop" FLAGS DCP INDEX 01 17:43:09 TRACK 05 AUDIO TITLE "U Know It Ain''t Love (David May Original Radio Mix)" PERFORMER "R.J. Feat. Pitbull" FLAGS DCP INDEX 01 20:51:66 TRACK 06 AUDIO TITLE "What Happens In Vegas (Radio Edit)" PERFORMER "Chuckie Feat. Gregor Salto" FLAGS DCP INDEX 01 24:10:37 TRACK 07 AUDIO TITLE "Big In Japan (Radio Edit)" PERFORMER "Martin Solveig & Dragonette Feat. Idoling!!!" FLAGS DCP INDEX 01 26:56:37 TRACK 08 AUDIO TITLE "Don''t Let The Music End (Original Radio Edit)" PERFORMER "Radio Killer" FLAGS DCP INDEX 00 29:41:61 INDEX 01 29:41:69 TRACK 09 AUDIO TITLE "Cry (Just A Little) (Radio Mix)" PERFORMER "Bingo Players" FLAGS DCP INDEX 01 32:38:36 TRACK 10 AUDIO TITLE "Munky Funky (Radio Edit)" PERFORMER "Corina" FLAGS DCP INDEX 00 35:35:04 INDEX 01 35:42:34 TRACK 11 AUDIO TITLE "Hot Girls (Radio Edit)" PERFORMER "Dony Feat. Elena" FLAGS DCP INDEX 01 39:03:34 TRACK 12 AUDIO TITLE "Lady (Say Hey) (Euro Mix)" PERFORMER "Jordi Mb Feat. Jason Rene" FLAGS DCP INDEX 00 42:43:02 INDEX 01 42:43:57 TRACK 13 AUDIO TITLE "Is It Love (Sahara Remix New Radio)" PERFORMER "Celia Feat. Kaye Styles" FLAGS DCP INDEX 00 45:43:46 INDEX 01 45:43:61 TRACK 14 AUDIO TITLE "Turn This Club Around (Video Edit)" PERFORMER "R.I.O. Feat. U-Jean" FLAGS DCP INDEX 01 48:37:12 TRACK 15 AUDIO TITLE "Amore (Chuckie Radio Mix)" PERFORMER "Sarvi" FLAGS DCP INDEX 01 51:57:43 TRACK 16 AUDIO TITLE "Midnight Sun (Radio Edit)" PERFORMER "Elena" FLAGS DCP INDEX 01 55:23:69 TRACK 17 AUDIO TITLE "Welcome To St. Tropez (Dj Antoine Vs. Mad Mark Remix)" PERFORMER "Dj Antoine Vs. Timati Feat. Kalenna" FLAGS DCP INDEX 01 58:39:07 TRACK 18 AUDIO TITLE "Hardcore Vibes (Original Mix)" PERFORMER "Global Deejays" FLAGS DCP INDEX 01 64:55:26 TRACK 19 AUDIO TITLE "Beats For You (Original Mix)" PERFORMER "Mischa Daniels & Tara Mcdonald" FLAGS DCP INDEX 01 69:47:39
REM GENRE ElectronicREM DATE 2012REM DISCID E1114B0DREM COMMENT "ExactAudioCopy v1.0b3"PERFORMER "Various"TITLE "Max Mix 2012 CD2"FILE "Various - Max Mix 2012 CD2.flac" WAVE TRACK 01 AUDIO TITLE "Amnesia (Extended Mix)" PERFORMER "Ian Carey & Rosette Feat. Timbaland & Brasco" FLAGS DCP INDEX 01 00:00:00 TRACK 02 AUDIO TITLE "Toca’s Miracle (Ralph Good & Chris Gant Remix)" PERFORMER "Fragma" FLAGS DCP INDEX 01 04:33:57 TRACK 03 AUDIO TITLE "Lovely On My Hand (Alex Berti Remix)" PERFORMER "Dorotea Mele Vs. Gabry Ponte" FLAGS DCP INDEX 01 11:07:41 TRACK 04 AUDIO TITLE "Alone Again (VooDoo & Serano Remix)" PERFORMER "Alyssa Reid Feat. Jump Smokers" FLAGS DCP INDEX 01 17:47:39 TRACK 05 AUDIO TITLE "Bedroom (David May Extended Mix)" PERFORMER "Redd Feat. Qwote & Pitbull" FLAGS DCP INDEX 01 23:05:44 TRACK 06 AUDIO TITLE "Hurry Up (Javi Mula Extended)" PERFORMER "Corona Feat. Mikey P." FLAGS DCP INDEX 01 27:27:28 TRACK 07 AUDIO TITLE "NYC Girl (Federico Scavo Remix)" PERFORMER "The Orion Experience" FLAGS DCP INDEX 00 32:12:30 INDEX 01 32:13:12 TRACK 08 AUDIO TITLE "Move Your Body 2012 (Extended)" PERFORMER "Benny Benassi vs Marshall Jefferson" FLAGS DCP INDEX 01 39:26:29 TRACK 09 AUDIO TITLE "Be Free (Molella Remix)" PERFORMER "DJ Eddy-N Feat. IVA & Heat" FLAGS DCP INDEX 01 44:45:15 TRACK 10 AUDIO TITLE "Make It Rain (RLS & 2Frenchguys Extended Remix)" PERFORMER "Courtney Argue Vs Jeremy Greene Feat. Pitbull" FLAGS DCP INDEX 00 51:17:09 INDEX 01 51:17:14 TRACK 11 AUDIO TITLE "Yo Te Siento Asi 2012 (Bottai & Ripari Extended)" PERFORMER "Jack Smeraglia Vs. G.E.M. Feat. Dr. Feelx" FLAGS DCP INDEX 01 57:59:56 TRACK 12 AUDIO TITLE "Candy Girl (Miguel Valbuena Dance Remix)" PERFORMER "Abel Almena Pres. Millennium" FLAGS DCP INDEX 01 63:11:64 TRACK 13 AUDIO TITLE "La Premiere Fois (Bacefook Remix)" PERFORMER "Lolita Jolie" FLAGS DCP INDEX 00 68:47:04 INDEX 01 68:47:22
Доп. информация: Max Mix Megamix все короче и короче...

Трекер:  [ 23-Янв-2014 21:22 ]

  

Скачать .torrent

Размер .torrent файла 23 KB


Размер: 1.09 GB
Хэш (hash) релиза: 764785af3b07d17d43d675b737f4872a2924914d

Еще никто не оставлял запись к записи скачать торрент . Будь первым!

!Обратная связь