Скачать через торрент Белый Альбом 2 White Album 2 бесплатно Аниме Все серии на русском torrent

Если у вас наблюдаются проблемы со скриншотами, переходом по ссылками, скачиванием торрентов - проблемы в блокировщике рекламы AdBlock. #хорошегоДня!


Статистика раздачи
Размер:  8.4 GB   |    Зарегистрирован:  3 года 3 месяца   |    .torrent скачан:  38 раз   |   
Раздают:  1  
   
Загрузка...
 
Автор Сообщение

Galfimbul

avatar Galfimbul



Год выпуска: 2013
Страна: Япония
Жанр: романтика, музыкальный
Продолжительность: 13 эп. по 24 мин.
Выпуск: c 06.10.2013 по 29.12.2013
Перевод:

русские субтитры от Timecraft (полные/вспомогательные)
редактор: DJATOM, переводчик/перевод песен/оформление: Nachtwandler
Режиссер: Андо Масаоми
Студия: Satelight
Описание:
Белый Альбом 2 никак не связан с первой частью - это новая история с новыми героями, так что те, кто не смотрел два сезона предыдущего "Белого Альбома", могут смело смотреть эту часть - все будет понятно.

Главный герой - ученик выпускного класса старшей школы. Близится его последний школьный фестиваль, на котором он хотел выступить со своим музыкальным клубом, но, увы, клуб распался, и все что ему остается - это сидеть одному в пустом классе у открытого окна и наигрывать на гитаре мелодию когда-то популярной песни "Белый альбом". Но вот ему подыгрывает фортепиано из соседней аудитории, а однажды к этому "аккомпанементу" добавится и голос с крыши школы. Вот так он и познакомится с двумя девушками, вместе с которыми сможет выступить на фестивале, ставшим хоть и кульминацией, но отнюдь не концом истории.

Как не трудно догадаться, история будет классическим "любовным треугольником", который обыгрывался не раз и не два во множестве произведений. Но именно такую "банальную" на первый взгляд истории рассказать сложнее всего...
© Lemio, World Art
Информационные ссылки: AniDB || World Art || MAL
Качество: BDRip
Энкод: Winter - RG Pantheon
Тип видео: без хардсаба, без линковки
Формат: mkv
Видео: x264 (Hi10p), 1280x720, ~3200 Kbps, 23.976 fps
Аудио JAP: Vorbis, 48000Hz, ~256 Kbps, 2ch
Аудио RUS 1: AC3, 48000Hz, ~192 Kbps, 2ch (внешними файлами)
Аудио RUS 2: AC3, 48000Hz, ~192 Kbps, 2ch (внешними файлами)
одноголосая (муж.) от JeFerSon (Opendub)

двухголосая (муж./жен.) от BalFor & Nika_Lenina (AniDub)
01. White Album
02. Piano and Guitar, Side by Side
Общее
Уникальный идентификатор : 246902069755814185972338383892137866506 (0xB9BF9BE3F9E8BF189596026E3FE7750A)
Полное имя : Z:\Anime\720p\White Album 2 [BD] [720p]\[Winter] White Album 2 01 [BDrip 1280x720 x264 Vorbis].mkv
Формат : Matroska
Версия формата : Version 2
Размер файла : 604 Мбайт
Продолжительность : 23 м.
Режим общего битрейта : Переменный
Общий поток : 3563 Кбит/сек
Дата кодирования : UTC 2014-01-19 14:02:43
Программа кодирования : mkvmerge v2.9.8 (''C''est le bon'') built on Aug 13 2009 12:49:06
Библиотека кодирования : libebml v0.7.7 + libmatroska v0.8.1

Видео
Идентификатор : 1
Формат : AVC
Формат/Информация : Advanced Video Codec
Профиль формата : High 10@L4.1
Параметр CABAC формата : Да
Параметр ReFrames формата : 9 кадров
Идентификатор кодека : V_MPEG4/ISO/AVC
Продолжительность : 23 м.
Битрейт : 3237 Кбит/сек
Ширина : 1280 пикселей
Высота : 720 пикселей
Соотношение сторон : 16:9
Режим частоты кадров : Постоянный
Частота кадров : 23,976 кадра/сек
Цветовое пространство : YUV
Субдискретизация насыщенности : 4:2:0
Битовая глубина : 10 бит
Тип развёртки : Прогрессивная
Бит/(Пиксели*Кадры) : 0.146
Размер потока : 549 Мбайт (91%)
Библиотека кодирования : x264 core 132 r2309 3b1f1f7
Настройки программы : cabac=1 / ref=9 / deblock=1:-2:-2 / analyse=0x3:0x133 / me=umh / subme=9 / psy=1 / psy_rd=0.90:0.00 / mixed_ref=1 / me_range=24 / chroma_me=1 / trellis=2 / 8x8dct=1 / cqm=0 / deadzone=21,11 / fast_pskip=1 / chroma_qp_offset=-2 / threads=12 / lookahead_threads=2 / sliced_threads=0 / nr=0 / decimate=0 / interlaced=0 / bluray_compat=0 / constrained_intra=0 / bframes=8 / b_pyramid=2 / b_adapt=2 / b_bias=0 / direct=1 / weightb=1 / open_gop=0 / weightp=2 / keyint=250 / keyint_min=23 / scenecut=40 / intra_refresh=0 / rc=crf / mbtree=0 / crf=15.7 / qcomp=0.70 / qpmin=9 / qpmax=40 / qpstep=4 / ip_ratio=1.40 / pb_ratio=1.30 / aq=1:0.90
Default : Нет
Forced : Нет

Аудио
Идентификатор : 2
Формат : Vorbis
Параметр Floor формата : 1
Идентификатор кодека : A_VORBIS
Продолжительность : 23 м.
Вид битрейта : Переменный
Битрейт : 256 Кбит/сек
Каналы : 2 канала
Частота : 48,0 КГц
Метод сжатия : С потерями
Размер потока : 43,4 Мбайт (7%)
Библиотека кодирования : libVorbis (Schaufenugget) (20101101 (Schaufenugget))
Язык : Japanese
Default : Да
Forced : Нет



Трекер:  [ 12-Июн-2014 22:00 ]

  

Скачать .torrent

Размер .torrent файла 48 KB


Размер: 8.4 GB
Хэш (hash) релиза: c1d2e6fe8a8d0fe5a4ce3e5e2e3feeb538947fd3
Подписка на обновления:

Торренты, похожие на Белый Альбом 2 White Album 2 скачать торрент

Форум Название Автор Размер S L Добавлен
Аниме | HD Rips ·· Белый Альбом 2 / White Album 2 / ホワイトアルバム 2 [TV] [13 из13] [Без хардсаба] [JAP, SUB] [2013 г., романтика, музыкальный, BDRip] [1080p] Galfimbul 1402399909513.06 GB 0 0 1418686576

02:36

16-Дек-14

Аниме | HD Rips ·· Белый Альбом 2 / White Album 2 [TV] [13 из 13] [Без хардсаба] [RUS(ext), JAP + SUB] [2013, романтика, музыкальный, BDRip] [1080p] Galfimbul 1877508429417.49 GB 0 0 1486382557

15:02

6-Фев-17

Аниме | HD Rips ·· Белый Альбом 2 / White Album 2 (Андо Масаоми) [TV] [13 из 13] [без хардсаба] [RUS(ext), JAP+SUB] [2013 г., романтика, музыкальный, BDRip] [720p] Galfimbul 91575838008.53 GB 0 0 1390501032

21:17

23-Янв-14

Аниме | HD Rips ·· White Album 2 / Белый Альбом 2 (Ёсида Тайдзо) [TV] [1 из >12] [без хардсаба] [JAP+SUB] [2013 г., романтика, WEBRip] [720p] Polarnik 340378130325 MB 0 0 1381308582

11:49

9-Окт-13

Аниме | HD Rips ·· Белый Альбом (второй сезон) / White Album 2 [TV] [1-13 из 13] [JAP+SUB] [2009 г., романтика, драма, музыкальный, BDRip] [720p] [Субтитры] Bot 62849492765.85 GB 0 0 1286480722

22:45

7-Окт-10

bot

Раздача обновлена!
Перекачайте торрент-файл.

bot

Раздача обновлена!
Перекачайте торрент-файл.

bot

Раздача обновлена!
Перекачайте торрент-файл.

Хотите добавить комментарий к записи скачать торрент Белый Альбом 2 White Album 2

!Обратная связь