Скачать через торрент музыку бесплатно без регистрации torrent

Если у вас наблюдаются проблемы со скриншотами, переходом по ссылками, скачиванием торрентов - проблемы в блокировщике рекламы AdBlock. #хорошегоДня!


Статистика раздачи
Размер:  321 MB   |    Зарегистрирован:  3 года 10 месяцев   |    .torrent скачан:  121 раз   |   
Раздают:  1  
   
Загрузка...
 
Автор Сообщение

Galfimbul

avatar Galfimbul


Jade 4 U / Rave Madonna

Жанр: Pop
Носитель: CD
Страна-производитель диска: Japan
Год издания: 1994
Издатель (лейбл): Avex Trax
Номер по каталогу: AVCD-11231
Страна: Belgium
Аудиокодек: FLAC (*.flac)
Тип рипа: tracks+.cue
Битрейт аудио: lossless
Продолжительность: 00:44:42
Источник (релизер): Catar4x (what.cd)
Наличие сканов в содержимом раздачи: нет

Треклист:

01. You Got the Magic (3:59)
02. Lift Me Up (3:31)
03. Listen to the Music (4:35)
04. So Good to Be Me (4:59)
05. Keep on Dancing (3:43)
06. Come on and Give It (3:46)
07. Messenger of Love (5:11)
08. Cruising on the Wings of Love (3:36)
09. Set Your Body Free (4:43)
10. That''s Jazz (3:39)
11. Be My Baby (3:00)
Exact Audio Copy V1.0 beta 3 from 29. August 2011

EAC extraction logfile from 13. November 2013, 16:11

Jade 4 U / Rave Madonna

Used drive : TSSTcorpCDDVDW SN-208BB Adapter: 0 ID: 0

Read mode : SecureUtilize accurate stream : YesDefeat audio cache : YesMake use of C2 pointers : No

Read offset correction : 6Overread into Lead-In and Lead-Out : NoFill up missing offset samples with silence : YesDelete leading and trailing silent blocks : NoNull samples used in CRC calculations : YesUsed interface : Native Win32 interface for Win NT & 2000Gap handling : Appended to previous track

Used output format : User Defined EncoderSelected bitrate : 896 kBit/sQuality : HighAdd ID3 tag : NoCommand line compressor : C:\Program Files (x86)\Exact Audio Copy\Flac\flac 1.3\64bits\flac.exeAdditional command line options : -V -8 -T "Genre=%genre%" -T "Artist=%artist%" -T "Title=%title%" -T "Album=%albumtitle%" -T "Date=%year%" -T "Tracknumber=%tracknr%" -T "Comment=" %source%

TOC of the extracted CD

Track | Start | Length | Start sector | End sector --------------------------------------------------------- 1 | 0:00.00 | 3:58.40 | 0 | 17889 2 | 3:58.40 | 3:31.15 | 17890 | 33729 3 | 7:29.55 | 4:35.20 | 33730 | 54374 4 | 12:05.00 | 4:58.45 | 54375 | 76769 5 | 17:03.45 | 3:43.10 | 76770 | 93504 6 | 20:46.55 | 3:45.57 | 93505 | 110436 7 | 24:32.37 | 5:11.28 | 110437 | 133789 8 | 29:43.65 | 3:36.07 | 133790 | 149996 9 | 33:19.72 | 4:43.18 | 149997 | 171239 10 | 38:03.15 | 3:39.22 | 171240 | 187686 11 | 41:42.37 | 3:00.03 | 187687 | 201189

Track 1

Filename C:\Users\Paul\Desktop\Jade 4 U - Rave Madonna (1994) [FLAC]\01 - You Got the Magic.wav

Pre-gap length 0:00:02.00

Peak level 99.3 % Extraction speed 2.6 X Track quality 100.0 % Test CRC 543AC467 Copy CRC 543AC467 Track not present in AccurateRip database Copy OK

Track 2

Filename C:\Users\Paul\Desktop\Jade 4 U - Rave Madonna (1994) [FLAC]\02 - Lift Me Up.wav

Pre-gap length 0:00:00.24

Peak level 99.3 % Extraction speed 2.8 X Track quality 100.0 % Test CRC 15FF4A4C Copy CRC 15FF4A4C Track not present in AccurateRip database Copy OK

Track 3

Filename C:\Users\Paul\Desktop\Jade 4 U - Rave Madonna (1994) [FLAC]\03 - Listen To The Music.wav

Pre-gap length 0:00:00.17

Peak level 99.3 % Extraction speed 3.2 X Track quality 100.0 % Test CRC 9E529FF6 Copy CRC 9E529FF6 Track not present in AccurateRip database Copy OK

Track 4

Filename C:\Users\Paul\Desktop\Jade 4 U - Rave Madonna (1994) [FLAC]\04 - So Good to Be Me.wav

Pre-gap length 0:00:00.40

Peak level 99.3 % Extraction speed 3.5 X Track quality 100.0 % Test CRC A15ABF96 Copy CRC A15ABF96 Track not present in AccurateRip database Copy OK

Track 5

Filename C:\Users\Paul\Desktop\Jade 4 U - Rave Madonna (1994) [FLAC]\05 - Keep on Dancing.wav

Pre-gap length 0:00:00.84

Peak level 99.4 % Extraction speed 3.6 X Track quality 100.0 % Test CRC 28E38EB4 Copy CRC 28E38EB4 Track not present in AccurateRip database Copy OK

Track 6

Filename C:\Users\Paul\Desktop\Jade 4 U - Rave Madonna (1994) [FLAC]\06 - Come on and Give It.wav

Pre-gap length 0:00:00.20

Peak level 99.4 % Extraction speed 3.0 X Track quality 99.9 % Test CRC 624AB94D Copy CRC 624AB94D Track not present in AccurateRip database Copy OK

Track 7

Filename C:\Users\Paul\Desktop\Jade 4 U - Rave Madonna (1994) [FLAC]\07 - Messenger of Love.wav

Pre-gap length 0:00:00.46

Peak level 99.4 % Extraction speed 4.2 X Track quality 100.0 % Test CRC 20D2624A Copy CRC 20D2624A Track not present in AccurateRip database Copy OK

Track 8

Filename C:\Users\Paul\Desktop\Jade 4 U - Rave Madonna (1994) [FLAC]\08 - Cruising on the Wings of Love.wav

Pre-gap length 0:00:00.33

Peak level 99.4 % Extraction speed 3.2 X Track quality 99.9 % Test CRC FF3EF7D3 Copy CRC FF3EF7D3 Track not present in AccurateRip database Copy OK

Track 9

Filename C:\Users\Paul\Desktop\Jade 4 U - Rave Madonna (1994) [FLAC]\09 - Set Your Body Free.wav

Pre-gap length 0:00:00.16

Peak level 99.3 % Extraction speed 4.5 X Track quality 100.0 % Test CRC C5F65EA5 Copy CRC C5F65EA5 Track not present in AccurateRip database Copy OK

Track 10

Filename C:\Users\Paul\Desktop\Jade 4 U - Rave Madonna (1994) [FLAC]\10 - That''s Jazz.wav

Pre-gap length 0:00:00.33

Peak level 99.3 % Extraction speed 4.6 X Track quality 100.0 % Test CRC B07A6994 Copy CRC B07A6994 Track not present in AccurateRip database Copy OK

Track 11

Filename C:\Users\Paul\Desktop\Jade 4 U - Rave Madonna (1994) [FLAC]\11 - Be My Baby.wav

Pre-gap length 0:00:00.49

Peak level 99.3 % Extraction speed 4.5 X Track quality 100.0 % Test CRC 743FCB54 Copy CRC 743FCB54 Track not present in AccurateRip database Copy OK

None of the tracks are present in the AccurateRip database

No errors occurred

End of status report

---- CUETools DB Plugin V2.1.3

[CTDB TOCID: vIUgbJoNfsAa3HO92.WpqVSyTvs-] found, Submit result: vIUgbJoNfsAa3HO92.WpqVSyTvs- has been confirmed[f84ce9fa] (1/1) Accurately ripped

==== Log checksum 36E585C7299A6432049CAD9C807514BF9C4FE04B5830BEFB7E53DF2FC48CE808 ====
REM GENRE RaveREM DATE 1994REM DISCID 7D0A7A0BREM COMMENT "ExactAudioCopy v1.0b3"CATALOG 4988064112319PERFORMER "Jade 4 U"TITLE "Rave Madonna"FILE "01 - You Got the Magic.wav" WAVE TRACK 01 AUDIO TITLE "You Got the Magic" PERFORMER "Jade 4 U" INDEX 01 00:00:00 TRACK 02 AUDIO TITLE "Lift Me Up" PERFORMER "Jade 4 U" INDEX 00 03:58:22FILE "02 - Lift Me Up.wav" WAVE INDEX 01 00:00:00 TRACK 03 AUDIO TITLE "Listen To The Music" PERFORMER "Jade 4 U" INDEX 00 03:31:02FILE "03 - Listen To The Music.wav" WAVE INDEX 01 00:00:00 TRACK 04 AUDIO TITLE "So Good to Be Me" PERFORMER "Jade 4 U" INDEX 00 04:34:65FILE "04 - So Good to Be Me.wav" WAVE INDEX 01 00:00:00 TRACK 05 AUDIO TITLE "Keep on Dancing" PERFORMER "Jade 4 U" INDEX 00 04:57:57FILE "05 - Keep on Dancing.wav" WAVE INDEX 01 00:00:00 TRACK 06 AUDIO TITLE "Come on and Give It" PERFORMER "Jade 4 U" INDEX 00 03:42:70FILE "06 - Come on and Give It.wav" WAVE INDEX 01 00:00:00 TRACK 07 AUDIO TITLE "Messenger of Love" PERFORMER "Jade 4 U" INDEX 00 03:45:22FILE "07 - Messenger of Love.wav" WAVE INDEX 01 00:00:00 TRACK 08 AUDIO TITLE "Cruising on the Wings of Love" PERFORMER "Jade 4 U" INDEX 00 05:11:03FILE "08 - Cruising on the Wings of Love.wav" WAVE INDEX 01 00:00:00 TRACK 09 AUDIO TITLE "Set Your Body Free" PERFORMER "Jade 4 U" INDEX 00 03:35:70FILE "09 - Set Your Body Free.wav" WAVE INDEX 01 00:00:00 TRACK 10 AUDIO TITLE "That''s Jazz" PERFORMER "Jade 4 U" INDEX 00 04:42:68FILE "10 - That''s Jazz.wav" WAVE INDEX 01 00:00:00 TRACK 11 AUDIO TITLE "Be My Baby" PERFORMER "Jade 4 U" INDEX 00 03:38:60FILE "11 - Be My Baby.wav" WAVE INDEX 01 00:00:00


Трекер:  [ 21-Янв-2014 20:11 ]

  

Скачать .torrent

Размер .torrent файла 13 KB


Размер: 321 MB
Хэш (hash) релиза: 67c1b27d701ce3d65e6546252cd6908e80ea7c5b

Еще никто не оставлял запись к записи скачать торрент . Будь первым!

!Обратная связь