Скачать через торрент музыку Seu Jorge - Live at Montreux бесплатно без регистрации torrent

Статистика раздачи
Размер:  4.25 GB   |    Зарегистрирован:  3 года 1 месяц   |    .torrent скачан:  149 раз   |   
Раздают:  1  
   
 
Автор Сообщение

Galfimbul

avatar Galfimbul


Seu Jorge - Live at Montreux

Жанр: brazilian samba, bossa nova, WF
Продолжительность: 00:59:37
Год выпуска: 2005

Описание:
Seu Jorge - Live at Montreux 2005

= ТРЕКЛИСТ =
= Mania de Peitao / Ai Que Saudades Da Amelia =
= Tive Razao =
= Fiori de La Citta =
= Sao Gonca =
= Una Mujer =
= Te Queria / Nao Sou Eu =
= Cirandar / Mateus Enter =
= Coquiero Verde =
= Depois Que O Lle Passar =
= Percussion Solo =


Качество: HDTV 1080р
Контейнер: MP4
Видео кодек: H.264
Аудио кодек: AAC
Видео: 1920x1080 (16:9), 25.00 fps, AVC, 9812 Кбит, 0.188 bits/pixel
Аудио: 48.0 KHz, AAC-LC, 2 ch, stereo, 128-384 Kbps VBR
Полное имя : G:\DVD\Seu Jorge - Live at Montreux 2005\Seu Jorge - Live at Montreux 2005.mp4Формат : MPEG-4Профиль формата : Base Media / Version 2Идентификатор кодека : mp42Размер файла : 4,25 ГбайтПродолжительность : 59 м.Общий поток : 10,2 Мбит/секДата кодирования : UTC 2014-01-19 16:45:49Дата пометки : UTC 2014-01-19 16:45:49

ВидеоИдентификатор : 2Формат : AVCФормат/Информация : Advanced Video CodecПрофиль формата : Main@L4.1Параметр CABAC формата : ДаПараметр ReFrames формата : 2 кадраИдентификатор кодека : avc1Идентификатор кодека/Информация : Advanced Video CodingПродолжительность : 59 м.Вид битрейта : ПеременныйБитрейт : 9812 Кбит/секМаксимальный битрейт : 10,0 Мбит/секШирина : 1920 пикселейВысота : 1088 пикселейВысота оригинала : 1080 пикселейСоотношение сторон : 16:9Соотношение сторон в оригинале : 16:9Режим частоты кадров : ПостоянныйЧастота кадров : 25,000 кадров/секЧастота кадров в оригинале : 12,500 кадров/секЦветовое пространство : YUVСубдискретизация насыщенности : 4:2:0Битовая глубина : 8 битТип развёртки : ПрогрессивнаяБит/(Пиксели*Кадры) : 0.188Размер потока : 4,09 Гбайт (96%)Язык : EnglishДата кодирования : UTC 2014-01-19 16:45:49Дата пометки : UTC 2014-01-19 16:45:49

АудиоИдентификатор : 1Формат : AACФормат/Информация : Advanced Audio CodecПрофиль формата : LCИдентификатор кодека : 40Продолжительность : 59 м.Вид битрейта : ПостоянныйБитрейт : 384 Кбит/секНоминальный битрейт : 128 Кбит/секКаналы : 2 каналаРасположение каналов : Front: L RЧастота : 48,0 КГцМетод сжатия : С потерямиРазмер потока : 163 Мбайт (4%)Язык : EnglishДата кодирования : UTC 2014-01-19 16:45:49Дата пометки : UTC 2014-01-19 16:45:49


Трекер:  [ 20-Янв-2014 19:02 ]

  

Скачать .torrent

Размер .torrent файла 21 KB


Размер: 4.25 GB
Хэш (hash) релиза: 9e66712ac2ee9fdee9fc08861e5644bc9a994b2e

Еще никто не оставлял запись к записи скачать торрент Seu Jorge - Live at Montreux . Будь первым!

!Обратная связь