Скачать порно через торрент Kakyuusei 2: Sketchbook Студент 2: Альбом UnionPeer.org бесплатно онлайн HD качество

Скачать новое порно 2015, 2014 новинки через торрент UnionPeer.org

Порно торрент бесплатно ЮнионПир.орг

Если у вас наблюдаются проблемы со скриншотами, переходом по ссылками, скачиванием торрентов - проблемы в блокировщике рекламы AdBlock. #хорошегоДня!


Статистика раздачи
Размер:  4.47 GB   |    Зарегистрирован:  3 года 8 месяцев   |    .torrent скачан:  142 раза   |   
Раздают:  1  
   
Загрузка...
 
Автор Сообщение

Galfimbul

avatar Galfimbul


Kakyuusei 2: Sketchbook / 下級生2~Sketchbook~ / Студент 2: Альбом / Какюсэй 2

Год производства: 2007 г.
Жанр: Tiny tits, Oral sex, Romance, Nurse
Серии: ep. 1-2 of 2
Продолжительность: 2х~28 min + 6 min трейлеры
Цензура: Есть

Озвучка: Японская (Оригинальная)

Режиссер: Oogawara Haruo
Автор оригинала: Elf
Студия: Pink Pineapple

Описание RUS: Главные герои повзрослели по сравнению с первой частью Они теперь не школьники, а студенты. И конечно же в универе они узнают много нового, но больше все информации новой они получают о сексе. Они думали, что бывают только стандартные связи между мужчиной и женщиной , но тут им предстоит узнать о лесбиянках и голубых, об групповом сексе. смогут ли они остаться верными друг другу. когда появилось столько новых соблазнов. ведь молодежи всегда хочется попробовать что то новое, что то запретное....

Описание ENG: Tamaki happens to find a sketchbook in her closet. Upon seeing the pictures within, she realizes that Rouma has been with her in her memories. Meanwhile, the kickboxing club Rouma belongs to is about to close because Rouma is the only member and thus cannot take part in team tournaments. However, Rouma isn't concerned, and draws a nude picture of Misaki during his supplementary art class. When he beats up a stalker, the grateful Misaki begins to seduce him. On the other hand, Tamaki begins to be unsatisfied with their relationship as mere childhood friends.

Информационные ссылки: AniDB - MAL - World Art - ХентайМаг

Качество видео: 2x DVD5
Формат видео: DVD Video
Видео кодек: MPEG2
Аудио кодек: AC3
Видео: 720х480, (4:3), 29,970 кадров/сек, ~ 8500 Кбит/сек, NTSC
Аудио: JAP, AC-3, 2 канала, 192 Кбит/сек, 48,0 КГц
Общее
Полное имя : J:\VIDEO_TS\VTS_01_1.VOB
Формат : MPEG-PS
Размер файла : 1024 Мбайт
Продолжительность : 17 м.
Режим общего битрейта : Переменный
Общий поток : 8251 Кбит/сек

Видео
Идентификатор : 224 (0xE0)
Формат : MPEG Video
Версия формата : Version 2
Профиль формата : Main@Main
Параметр BVOP формата : Да
Параметр матрицы формата : Выборочная
Параметр GOP формата : Variable
Продолжительность : 17 м.
Вид битрейта : Переменный
Битрейт : 7894 Кбит/сек
Максимальный битрейт : 9800 Кбит/сек
Ширина : 720 пикселей
Высота : 480 пикселей
Соотношение сторон : 4:3
Частота кадров : 29,970 кадров/сек
Стандарт вещания : NTSC
Цветовое пространство : YUV
Субдискретизация насыщенности : 4:2:0
Битовая глубина : 8 бит
Тип развёртки : Чересстрочная
Порядок развёртки : Верхнее поле первое
Метод сжатия : С потерями
Бит/(Пиксели*Кадры) : 0.762
Временной код первого кадра : 01:00:17:00
Оригинал временного кода : Group of pictures header
Размер потока : 979 Мбайт (96%)

Аудио
Идентификатор : 189 (0xBD)-128 (0x80)
Формат : AC-3
Формат/Информация : Audio Coding 3
Расширение режима : CM (complete main)
Параметр Endianness формата : Big
Режим смешивания : DVD-Video
Продолжительность : 17 м.
Вид битрейта : Постоянный
Битрейт : 192 Кбит/сек
Каналы : 2 канала
Расположение каналов : Front: L R
Частота : 48,0 КГц
Битовая глубина : 16 бит
Метод сжатия : С потерями
Размер потока : 23,8 Мбайт (2%)

Меню


Трекер:  [ 20-Янв-2014 13:06 ]

  

Скачать .torrent

Размер .torrent файла 12 KB


Размер: 4.47 GB
Хэш (hash) релиза: 6769fc9a89f7c2305e00828908b72af2ac452cce

Еще никто не оставлял запись к записи скачать торрент Kakyuusei 2: Sketchbook Студент 2: Альбом . Будь первым!

!Обратная связь