Скачать через торрент музыку бесплатно без регистрации torrent

Если у вас наблюдаются проблемы со скриншотами, переходом по ссылками, скачиванием торрентов - проблемы в блокировщике рекламы AdBlock. #хорошегоДня!


Статистика раздачи
Размер:  6.54 GB   |    Зарегистрирован:  3 года 9 месяцев   |    .torrent скачан:  185 раз   |   
Раздают:  1  
   
Загрузка...
 
Автор Сообщение

Galfimbul

avatar Galfimbul


Herb Alpert And The Tijuana Brass – Signature Series (13 CD)



Жанр: Jazz-Pop, Trumpet
Носитель: CD
Год издания: 2005-2013
Издатель (лейбл): Shout! Factory
Аудиокодек: FLAC (*.flac)
Тип рипа: image+.cue
Битрейт аудио: lossless
Продолжительность: под спойлерами
Rip by flac jacket
Наличие сканов в содержимом раздачи: full scans, 600 dpi 
 
 
Год издания: 2005
Номер по каталогу: DK 32771
Продолжительность:  32:42

Треклист:
01. The Lonely Bull (El Solo Toro) (2:19)
02. El Lobo (The Wolf) (3:05)
03. Tijuana Sauerkraut (2:50)
04. Desafinado (3:55)
05. Mexico (2:40)
06. Never On Sunday (2:47)
07. Struttin'' With Maria (2:15)
08. Let It Be Me (3:05)
09. Acapulco 1922 (2:44)
10. Limbo Rock (2:12)
11. Crawfish (2:29)
12. A Quiet Tear (Lagrima Quieta) (2:22)
 
Exact Audio Copy V1.0 beta 2 from 29. April 2011

EAC extraction logfile from 18. August 2013, 18:36

Herb Alpert & The Tijuana Brass / The Lonely Bull [2005 Shout! Factory Remaster]

Used drive : HL-DT-STBD-RE BH14NS40 Adapter: 0 ID: 2

Read mode : SecureUtilize accurate stream : YesDefeat audio cache : YesMake use of C2 pointers : No

Read offset correction : 6Overread into Lead-In and Lead-Out : NoFill up missing offset samples with silence : YesDelete leading and trailing silent blocks : NoNull samples used in CRC calculations : YesUsed interface : Native Win32 interface for Win NT & 2000

Used output format : User Defined EncoderSelected bitrate : 1024 kBit/sQuality : HighAdd ID3 tag : NoCommand line compressor : C:\Program Files (x86)\Exact Audio Copy\Flac\flac.exeAdditional command line options : -V -5 -T "artist=%albumartist%" -T "title=%title%" -T "album=%albumtitle%" -T "date=%year%" -T "genre=%genre%" -T "tracknumber=%tracknr%" %source%

TOC of the extracted CD

Track | Start | Length | Start sector | End sector --------------------------------------------------------- 1 | 0:00.00 | 2:18.67 | 0 | 10416 2 | 2:18.67 | 3:04.55 | 10417 | 24271 3 | 5:23.47 | 2:50.35 | 24272 | 37056 4 | 8:14.07 | 3:54.50 | 37057 | 54656 5 | 12:08.57 | 2:39.69 | 54657 | 66650 6 | 14:48.51 | 2:47.12 | 66651 | 79187 7 | 17:35.63 | 2:15.29 | 79188 | 89341 8 | 19:51.17 | 3:04.42 | 89342 | 103183 9 | 22:55.59 | 2:43.60 | 103184 | 115468 10 | 25:39.44 | 2:12.15 | 115469 | 125383 11 | 27:51.59 | 2:28.43 | 125384 | 136526 12 | 30:20.27 | 2:21.61 | 136527 | 147162

Range status and errors

Selected range

Filename C:\EAC\Herb Alpert & The Tijuana Brass - (1962) The Lonely Bull [2005 Shout! Factory Remaster]\Herb Alpert & The Tijuana Brass - The Lonely Bull [2005 Shout! Factory Remaster].wav

Peak level 96.6 % Extraction speed 5.2 X Range quality 100.0 % Test CRC 305461C7 Copy CRC 305461C7 Copy OK

No errors occurred

AccurateRip summary

Track 1 accurately ripped (confidence 11) [B1B6F222] (AR v2)Track 2 accurately ripped (confidence 11) [EFA30DA2] (AR v2)Track 3 accurately ripped (confidence 11) [3BB3ADBD] (AR v2)Track 4 accurately ripped (confidence 11) [6CCB0825] (AR v2)Track 5 accurately ripped (confidence 11) [DC4EDB21] (AR v2)Track 6 accurately ripped (confidence 11) [B1AF980F] (AR v2)Track 7 accurately ripped (confidence 11) [0FF15A46] (AR v2)Track 8 accurately ripped (confidence 11) [D62887BA] (AR v2)Track 9 accurately ripped (confidence 11) [717B371A] (AR v2)Track 10 accurately ripped (confidence 11) [30B85852] (AR v2)Track 11 accurately ripped (confidence 11) [47F48F2B] (AR v2)Track 12 accurately ripped (confidence 11) [52EF7A18] (AR v2)

All tracks accurately ripped

End of status report

==== Log checksum E419E422856BF6652ACAF308357B370EED615269D2A0ECD914A135C7FCD8BDB7 ====
REM GENRE "Easy Listening"REM DATE 1962REM DISCID 9507AA0CREM COMMENT "ExactAudioCopy v1.0b2"PERFORMER "Herb Alpert & The Tijuana Brass"TITLE "The Lonely Bull"FILE "Herb Alpert & The Tijuana Brass - The Lonely Bull.flac" WAVE TRACK 01 AUDIO TITLE "The Lonely Bull (El Solo Toro)" PERFORMER "Herb Alpert & The Tijuana Brass" INDEX 01 00:00:00 TRACK 02 AUDIO TITLE "El Lobo (The Wolf)" PERFORMER "Herb Alpert & The Tijuana Brass" INDEX 01 02:18:67 TRACK 03 AUDIO TITLE "Tijuana Sauerkraut" PERFORMER "Herb Alpert & The Tijuana Brass" INDEX 01 05:23:47 TRACK 04 AUDIO TITLE "Desafinado" PERFORMER "Herb Alpert & The Tijuana Brass" INDEX 01 08:14:07 TRACK 05 AUDIO TITLE "Mexico" PERFORMER "Herb Alpert & The Tijuana Brass" INDEX 01 12:08:57 TRACK 06 AUDIO TITLE "Never On Sunday" PERFORMER "Herb Alpert & The Tijuana Brass" INDEX 01 14:48:51 TRACK 07 AUDIO TITLE "Struttin'' With Maria" PERFORMER "Herb Alpert & The Tijuana Brass" INDEX 00 17:29:63 INDEX 01 17:35:63 TRACK 08 AUDIO TITLE "Let It Be Me" PERFORMER "Herb Alpert & The Tijuana Brass" INDEX 01 19:51:17 TRACK 09 AUDIO TITLE "Acapulco 1922" PERFORMER "Herb Alpert & The Tijuana Brass" INDEX 01 22:55:59 TRACK 10 AUDIO TITLE "Limbo Rock" PERFORMER "Herb Alpert & The Tijuana Brass" INDEX 01 25:39:44 TRACK 11 AUDIO TITLE "Crawfish" PERFORMER "Herb Alpert & The Tijuana Brass" INDEX 01 27:51:59 TRACK 12 AUDIO TITLE "A Quiet Tear (Lagrima Quieta)" PERFORMER "Herb Alpert & The Tijuana Brass" INDEX 01 30:20:27
Год издания: 2005
Номер по каталогу: DK 32772
Продолжительность:  28:52

Треклист:
01. South Of The Border (2:17)
02. The Girl From Ipanema (2:45)
03. Hello, Dolly! (2:01)
04. I''ve Grown Accustomed To Her Face (2:32)
05. Up Cherry Street (2:23)
06. Mexican Shuffle (2:16)
07. El Presidente (2:52)
08. All My Loving (2:01)
09. Angelito (2:28)
10. Salud, Amor Y Dinero (2:13)
11. Numero Cinco (2:21)
12. Adios, Mi Corazon (2:44)
 
Exact Audio Copy V1.0 beta 2 from 29. April 2011

EAC extraction logfile from 18. August 2013, 1:28

Herb Alpert''s Tijuana Brass / South Of The Border [2005 Shout! Factory Remaster]

Used drive : HL-DT-STBD-RE BH14NS40 Adapter: 0 ID: 2

Read mode : SecureUtilize accurate stream : YesDefeat audio cache : YesMake use of C2 pointers : No

Read offset correction : 6Overread into Lead-In and Lead-Out : NoFill up missing offset samples with silence : YesDelete leading and trailing silent blocks : NoNull samples used in CRC calculations : YesUsed interface : Native Win32 interface for Win NT & 2000

Used output format : User Defined EncoderSelected bitrate : 1024 kBit/sQuality : HighAdd ID3 tag : NoCommand line compressor : C:\Program Files (x86)\Exact Audio Copy\Flac\flac.exeAdditional command line options : -V -5 -T "artist=%albumartist%" -T "title=%title%" -T "album=%albumtitle%" -T "date=%year%" -T "genre=%genre%" -T "tracknumber=%tracknr%" %source%

TOC of the extracted CD

Track | Start | Length | Start sector | End sector --------------------------------------------------------- 1 | 0:00.00 | 2:16.46 | 0 | 10245 2 | 2:16.46 | 2:45.25 | 10246 | 22645 3 | 5:01.71 | 2:00.73 | 22646 | 31718 4 | 7:02.69 | 2:31.38 | 31719 | 43081 5 | 9:34.32 | 2:23.09 | 43082 | 53815 6 | 11:57.41 | 2:16.11 | 53816 | 64026 7 | 14:13.52 | 2:52.35 | 64027 | 76961 8 | 17:06.12 | 2:00.57 | 76962 | 86018 9 | 19:06.69 | 2:27.51 | 86019 | 97094 10 | 21:34.45 | 2:12.60 | 97095 | 107054 11 | 23:47.30 | 2:20.57 | 107055 | 117611 12 | 26:08.12 | 2:43.71 | 117612 | 129907

Range status and errors

Selected range

Filename C:\EAC\Herb Alpert''s Tijuana Brass - (1964) South Of The Border [2005 Shout! Factory Remaster]\Herb Alpert''s Tijuana Brass - South Of The Border [2005 Shout! Factory Remaster].wav

Peak level 96.6 % Extraction speed 5.4 X Range quality 100.0 % Test CRC 072F1A0F Copy CRC 072F1A0F Copy OK

No errors occurred

AccurateRip summary

Track 1 accurately ripped (confidence 10) [A653BF9C] (AR v2)Track 2 accurately ripped (confidence 10) [2DD492FB] (AR v2)Track 3 accurately ripped (confidence 10) [23AA27FC] (AR v2)Track 4 accurately ripped (confidence 10) [7164630F] (AR v2)Track 5 accurately ripped (confidence 10) [228C98B2] (AR v2)Track 6 accurately ripped (confidence 10) [B54C8F9C] (AR v2)Track 7 accurately ripped (confidence 10) [8FEFABCD] (AR v2)Track 8 accurately ripped (confidence 10) [F07D0322] (AR v2)Track 9 accurately ripped (confidence 10) [106E71E0] (AR v2)Track 10 accurately ripped (confidence 10) [070F0F12] (AR v2)Track 11 accurately ripped (confidence 10) [3F287926] (AR v2)Track 12 accurately ripped (confidence 10) [E98AEBFC] (AR v2)

All tracks accurately ripped

End of status report

==== Log checksum 5E83D0CB1AD476976A82FF1632134C82037FC2B67FFCF5D7227B3527096CAC80 ====
REM GENRE "Easy Listening"REM DATE 1964REM DISCID 9B06C40CREM COMMENT "ExactAudioCopy v1.0b2"PERFORMER "Herb Alpert''s Tijuana Brass"TITLE "South Of The Border"FILE "Herb Alpert''s Tijuana Brass - South Of The Border.flac" WAVE TRACK 01 AUDIO TITLE "South Of The Border" PERFORMER "Herb Alpert''s Tijuana Brass" INDEX 01 00:00:00 TRACK 02 AUDIO TITLE "The Girl From Ipanema" PERFORMER "Herb Alpert''s Tijuana Brass" INDEX 01 02:16:46 TRACK 03 AUDIO TITLE "Hello, Dolly!" PERFORMER "Herb Alpert''s Tijuana Brass" INDEX 01 05:01:71 TRACK 04 AUDIO TITLE "I''ve Grown Accustomed To Her Face" PERFORMER "Herb Alpert''s Tijuana Brass" INDEX 01 07:02:69 TRACK 05 AUDIO TITLE "Up Cherry Street" PERFORMER "Herb Alpert''s Tijuana Brass" INDEX 01 09:34:32 TRACK 06 AUDIO TITLE "Mexican Shuffle" PERFORMER "Herb Alpert''s Tijuana Brass" INDEX 01 11:57:41 TRACK 07 AUDIO TITLE "El Presidente" PERFORMER "Herb Alpert''s Tijuana Brass" INDEX 00 14:07:52 INDEX 01 14:13:52 TRACK 08 AUDIO TITLE "All My Loving" PERFORMER "Herb Alpert''s Tijuana Brass" INDEX 01 17:06:12 TRACK 09 AUDIO TITLE "Angelito" PERFORMER "Herb Alpert''s Tijuana Brass" INDEX 01 19:06:69 TRACK 10 AUDIO TITLE "Salud, Amor Y Dinero" PERFORMER "Herb Alpert''s Tijuana Brass" INDEX 01 21:34:45 TRACK 11 AUDIO TITLE "Numero Cinco" PERFORMER "Herb Alpert''s Tijuana Brass" INDEX 01 23:47:30 TRACK 12 AUDIO TITLE "Adios, Mi Corazon" PERFORMER "Herb Alpert''s Tijuana Brass" INDEX 01 26:08:12
Год издания: 2005
Номер по каталогу: DK 30765
Продолжительность: 30:22

Треклист:
01. Tijuana Taxi (2:09)
02. I''m Getting Sentimental Over You (2:14)
03. More And More Amor (2:47)
04. Spanish Flea (2:10)
05. Mae (2:30)
06. 3rd Man Theme (2:37)
07. Walk, Don''t Run (1:49)
08. Felicia (2:49)
09. And The Angles Sing (2:39)
10. Cinco De Mayo (2:21)
11. A Walk In The Black Forest (1:52)
12. Zorba The Greek (4:25)
 
Exact Audio Copy V1.0 beta 2 from 29. April 2011

EAC extraction logfile from 18. August 2013, 20:01

Herb Alpert And The Tijuana Brass / !!Going Places!! [2005 Shout! Factory Remaster]

Used drive : HL-DT-STDVDRAM GH60N Adapter: 0 ID: 1

Read mode : SecureUtilize accurate stream : YesDefeat audio cache : YesMake use of C2 pointers : No

Read offset correction : 667Overread into Lead-In and Lead-Out : NoFill up missing offset samples with silence : YesDelete leading and trailing silent blocks : NoNull samples used in CRC calculations : YesUsed interface : Native Win32 interface for Win NT & 2000

Used output format : User Defined EncoderSelected bitrate : 1024 kBit/sQuality : HighAdd ID3 tag : NoCommand line compressor : C:\Program Files (x86)\Exact Audio Copy\Flac\flac.exeAdditional command line options : -V -5 -T "artist=%albumartist%" -T "title=%title%" -T "album=%albumtitle%" -T "date=%year%" -T "genre=%genre%" -T "tracknumber=%tracknr%" %source%

TOC of the extracted CD

Track | Start | Length | Start sector | End sector --------------------------------------------------------- 1 | 0:00.00 | 2:09.13 | 0 | 9687 2 | 2:09.13 | 2:13.55 | 9688 | 19717 3 | 4:22.68 | 2:47.37 | 19718 | 32279 4 | 7:10.30 | 2:09.54 | 32280 | 42008 5 | 9:20.09 | 2:30.32 | 42009 | 53290 6 | 11:50.41 | 2:37.06 | 53291 | 65071 7 | 14:27.47 | 1:49.00 | 65072 | 73246 8 | 16:16.47 | 2:48.58 | 73247 | 85904 9 | 19:05.30 | 2:39.09 | 85905 | 97838 10 | 21:44.39 | 2:20.64 | 97839 | 108402 11 | 24:05.28 | 1:51.58 | 108403 | 116785 12 | 25:57.11 | 4:24.57 | 116786 | 136642

Range status and errors

Selected range

Filename C:\EAC\Herb Alpert And The Tijuana Brass - (1965) !!Going Places!! [2005 Shout! Factory Remaster]\Herb Alpert And The Tijuana Brass - !!Going Places!! [2005 Shout! Factory Remaster].wav

Peak level 100.0 % Extraction speed 1.5 X Range quality 100.0 % Test CRC 82E4B1C9 Copy CRC 82E4B1C9 Copy OK

No errors occurred

AccurateRip summary

Track 1 accurately ripped (confidence 14) [7E032F32] (AR v2)Track 2 accurately ripped (confidence 14) [995D9B88] (AR v2)Track 3 accurately ripped (confidence 14) [D6095487] (AR v2)Track 4 accurately ripped (confidence 14) [4F5F45FF] (AR v2)Track 5 accurately ripped (confidence 14) [B6DF9084] (AR v2)Track 6 accurately ripped (confidence 14) [ADC0E0D0] (AR v2)Track 7 accurately ripped (confidence 14) [5CC29044] (AR v2)Track 8 accurately ripped (confidence 14) [E5990760] (AR v2)Track 9 accurately ripped (confidence 14) [77032C75] (AR v2)Track 10 accurately ripped (confidence 14) [9CF5073A] (AR v2)Track 11 accurately ripped (confidence 14) [D1FB9607] (AR v2)Track 12 accurately ripped (confidence 14) [85A73918] (AR v2)

All tracks accurately ripped

End of status report

==== Log checksum 46914C5797AA0A9F319E82B3998E1BDFF9D5662CC99291E4C864ED8B3BA1AAFD ====
REM GENRE "Easy Listening"REM DATE 1965REM DISCID 9D071D0CREM COMMENT "ExactAudioCopy v1.0b2"PERFORMER "Herb Alpert And The Tijuana Brass"TITLE "!!Going Places!!"FILE "Herb Alpert & The Tijuana Brass - !!Going Places!!.flac" WAVE TRACK 01 AUDIO TITLE "Tijuana Taxi" PERFORMER "Herb Alpert And The Tijuana Brass" INDEX 01 00:00:00 TRACK 02 AUDIO TITLE "I''m Getting Sentimental Over You" PERFORMER "Herb Alpert And The Tijuana Brass" INDEX 00 02:05:11 INDEX 01 02:09:13 TRACK 03 AUDIO TITLE "More And More Amor" PERFORMER "Herb Alpert And The Tijuana Brass" INDEX 00 04:19:06 INDEX 01 04:22:68 TRACK 04 AUDIO TITLE "Spanish Flea" PERFORMER "Herb Alpert And The Tijuana Brass" INDEX 00 07:06:40 INDEX 01 07:10:30 TRACK 05 AUDIO TITLE "Mae" PERFORMER "Herb Alpert And The Tijuana Brass" INDEX 00 09:16:59 INDEX 01 09:20:09 TRACK 06 AUDIO TITLE "3rd Man Theme" PERFORMER "Herb Alpert And The Tijuana Brass" INDEX 00 11:46:74 INDEX 01 11:50:41 TRACK 07 AUDIO TITLE "Walk, Don''t Run" PERFORMER "Herb Alpert And The Tijuana Brass" INDEX 00 14:24:54 INDEX 01 14:27:47 TRACK 08 AUDIO TITLE "Felicia" PERFORMER "Herb Alpert And The Tijuana Brass" INDEX 00 16:13:14 INDEX 01 16:16:47 TRACK 09 AUDIO TITLE "And The Angles Sing" PERFORMER "Herb Alpert And The Tijuana Brass" INDEX 00 19:02:15 INDEX 01 19:05:30 TRACK 10 AUDIO TITLE "Cinco De Mayo" PERFORMER "Herb Alpert And The Tijuana Brass" INDEX 00 21:41:21 INDEX 01 21:44:39 TRACK 11 AUDIO TITLE "A Walk In The Black Forest" PERFORMER "Herb Alpert And The Tijuana Brass" INDEX 00 24:01:16 INDEX 01 24:05:28 TRACK 12 AUDIO TITLE "Zorba The Greek" PERFORMER "Herb Alpert And The Tijuana Brass" INDEX 00 25:54:00 INDEX 01 25:57:11
Год издания: 2005
Номер по каталогу: DK 32868
Продолжительность: 34:50

Треклист:
01. A Taste Of Honey (2:45)
02. Green Peppers (1:32)
03. Tangerine (2:48)
04. Bittersweet Samba (1:44)
05. Lemon Tree (2:24)
06. Whipped Cream (2:35)
07. Love Potion #9 (3:02)
08. El Garbanzo (2:14)
09. Ladyfingers (2:46)
10. Butterball (2:14)
11. Peanuts (2:10)
12. Lollipops And Roses (2:30)
13. Rosemary (Unused Studio Session Master) (3:15)
14. Blueberry Park (Unused Studio Session Master) (2:50)
 
Exact Audio Copy V1.0 beta 2 from 29. April 2011

EAC extraction logfile from 18. August 2013, 0:22

Herb Alpert''s Tijuana Brass / Whipped Cream & Other Delights [2005 Shout! Factory Remaster]

Used drive : HL-DT-STBD-RE BH14NS40 Adapter: 0 ID: 2

Read mode : SecureUtilize accurate stream : YesDefeat audio cache : YesMake use of C2 pointers : No

Read offset correction : 6Overread into Lead-In and Lead-Out : NoFill up missing offset samples with silence : YesDelete leading and trailing silent blocks : NoNull samples used in CRC calculations : YesUsed interface : Native Win32 interface for Win NT & 2000

Used output format : User Defined EncoderSelected bitrate : 1024 kBit/sQuality : HighAdd ID3 tag : NoCommand line compressor : C:\Program Files (x86)\Exact Audio Copy\Flac\flac.exeAdditional command line options : -V -5 -T "artist=%albumartist%" -T "title=%title%" -T "album=%albumtitle%" -T "date=%year%" -T "genre=%genre%" -T "tracknumber=%tracknr%" %source%

TOC of the extracted CD

Track | Start | Length | Start sector | End sector --------------------------------------------------------- 1 | 0:00.00 | 2:44.47 | 0 | 12346 2 | 2:44.47 | 1:32.08 | 12347 | 19254 3 | 4:16.55 | 2:47.38 | 19255 | 31817 4 | 7:04.18 | 1:44.37 | 31818 | 39654 5 | 8:48.55 | 2:24.32 | 39655 | 50486 6 | 11:13.12 | 2:34.51 | 50487 | 62087 7 | 13:47.63 | 3:01.63 | 62088 | 75725 8 | 16:49.51 | 2:13.57 | 75726 | 85757 9 | 19:03.33 | 2:46.23 | 85758 | 98230 10 | 21:49.56 | 2:14.35 | 98231 | 108315 11 | 24:04.16 | 2:10.24 | 108316 | 118089 12 | 26:14.40 | 2:30.23 | 118090 | 129362 13 | 28:44.63 | 3:14.66 | 129363 | 143978 14 | 31:59.54 | 2:50.20 | 143979 | 156748

Range status and errors

Selected range

Filename C:\EAC\Herb Alpert''s Tijuana Brass - (1965) Whipped Cream & Other Delights [2005 Shout! Factory Remaster]\Herb Alpert''s Tijuana Brass - Whipped Cream & Other Delights [2005 Shout! Factory Remaster].wav

Peak level 100.0 % Extraction speed 5.2 X Range quality 100.0 % Test CRC A0FF09F2 Copy CRC A0FF09F2 Copy OK

No errors occurred

AccurateRip summary

Track 1 accurately ripped (confidence 35) [1816A5CB] (AR v2)Track 2 accurately ripped (confidence 36) [54CE229D] (AR v2)Track 3 accurately ripped (confidence 36) [0FFD2FE4] (AR v2)Track 4 accurately ripped (confidence 36) [0ABC7B85] (AR v2)Track 5 accurately ripped (confidence 36) [3B0DDA85] (AR v2)Track 6 accurately ripped (confidence 36) [B396AD5D] (AR v2)Track 7 accurately ripped (confidence 36) [CC4A3E77] (AR v2)Track 8 accurately ripped (confidence 36) [465A1D42] (AR v2)Track 9 accurately ripped (confidence 34) [8B83C7C6] (AR v2)Track 10 accurately ripped (confidence 36) [6645A8F7] (AR v2)Track 11 accurately ripped (confidence 36) [5000C796] (AR v2)Track 12 accurately ripped (confidence 36) [E4B7D04F] (AR v2)Track 13 accurately ripped (confidence 36) [1549AA9C] (AR v2)Track 14 accurately ripped (confidence 36) [5E55E51E] (AR v2)

All tracks accurately ripped

End of status report

==== Log checksum 78861B733C686A7B9C6909FA793ED674FA7EBAC51FCE3112287DC79D94014AA8 ====
REM GENRE "Easy Listening"REM DATE 1965REM DISCID AA08290EREM COMMENT "ExactAudioCopy v1.0b2"PERFORMER "Herb Alpert''s Tijuana Brass"TITLE "Whipped Cream & Other Delights"FILE "Herb Alpert''s Tijuana Brass - Whipped Cream & Other Delights.flac" WAVE TRACK 01 AUDIO TITLE "A Taste Of Honey" PERFORMER "Herb Alpert''s Tijuana Brass" INDEX 01 00:00:00 TRACK 02 AUDIO TITLE "Green Peppers" PERFORMER "Herb Alpert''s Tijuana Brass" INDEX 00 02:42:31 INDEX 01 02:44:47 TRACK 03 AUDIO TITLE "Tangerine" PERFORMER "Herb Alpert''s Tijuana Brass" INDEX 00 04:13:54 INDEX 01 04:16:55 TRACK 04 AUDIO TITLE "Bittersweet Samba" PERFORMER "Herb Alpert''s Tijuana Brass" INDEX 00 07:01:49 INDEX 01 07:04:18 TRACK 05 AUDIO TITLE "Lemon Tree" PERFORMER "Herb Alpert''s Tijuana Brass" INDEX 00 08:46:43 INDEX 01 08:48:55 TRACK 06 AUDIO TITLE "Whipped Cream" PERFORMER "Herb Alpert''s Tijuana Brass" INDEX 00 11:10:67 INDEX 01 11:13:12 TRACK 07 AUDIO TITLE "Love Potion #9" PERFORMER "Herb Alpert''s Tijuana Brass" INDEX 00 13:45:42 INDEX 01 13:47:63 TRACK 08 AUDIO TITLE "El Garbanzo" PERFORMER "Herb Alpert''s Tijuana Brass" INDEX 00 16:48:45 INDEX 01 16:49:51 TRACK 09 AUDIO TITLE "Ladyfingers" PERFORMER "Herb Alpert''s Tijuana Brass" INDEX 00 19:01:32 INDEX 01 19:03:33 TRACK 10 AUDIO TITLE "Butterball" PERFORMER "Herb Alpert''s Tijuana Brass" INDEX 00 21:48:15 INDEX 01 21:49:56 TRACK 11 AUDIO TITLE "Peanuts" PERFORMER "Herb Alpert''s Tijuana Brass" INDEX 00 24:02:04 INDEX 01 24:04:16 TRACK 12 AUDIO TITLE "Lollipops And Roses" PERFORMER "Herb Alpert''s Tijuana Brass" INDEX 00 26:12:64 INDEX 01 26:14:40 TRACK 13 AUDIO TITLE "Rosemary (Unused Studio Session Master)" PERFORMER "Herb Alpert''s Tijuana Brass" INDEX 00 28:42:12 INDEX 01 28:44:63 TRACK 14 AUDIO TITLE "Blueberry Park (Unused Studio Session Master)" PERFORMER "Herb Alpert''s Tijuana Brass" INDEX 00 31:56:61 INDEX 01 31:59:54
Год издания: 2005
Номер по каталогу: DK 30858
Продолжительность: 30:07

Треклист:
01. Our Day Will Come (2:23)
02. Mexican Road Race (2:30)
03. I Will Wait For You (3:17)
04. Bean Bag (2:01)
05. The Wall Street Rag (2:24)
06. The Work Song (2:12)
07. Mame (2:11)
08. Blue Sunday (2:44)
09. Don''t Go Breaking My Heart (2:34)
10. For Carlos (2:50)
11. Freight Train Joe (2:36)
12. Flamingo (2:26)
 
Exact Audio Copy V1.0 beta 2 from 29. April 2011

EAC extraction logfile from 18. August 2013, 20:57

Herb Alpert & The Tijuana Brass / S.R.O [2005 Shout! Factory Remaster]

Used drive : HL-DT-STBD-RE BH14NS40 Adapter: 0 ID: 2

Read mode : SecureUtilize accurate stream : YesDefeat audio cache : YesMake use of C2 pointers : No

Read offset correction : 6Overread into Lead-In and Lead-Out : NoFill up missing offset samples with silence : YesDelete leading and trailing silent blocks : NoNull samples used in CRC calculations : YesUsed interface : Native Win32 interface for Win NT & 2000

Used output format : User Defined EncoderSelected bitrate : 1024 kBit/sQuality : HighAdd ID3 tag : NoCommand line compressor : C:\Program Files (x86)\Exact Audio Copy\Flac\flac.exeAdditional command line options : -V -5 -T "artist=%albumartist%" -T "title=%title%" -T "album=%albumtitle%" -T "date=%year%" -T "genre=%genre%" -T "tracknumber=%tracknr%" %source%

TOC of the extracted CD

Track | Start | Length | Start sector | End sector --------------------------------------------------------- 1 | 0:00.00 | 2:22.46 | 0 | 10695 2 | 2:22.46 | 2:29.59 | 10696 | 21929 3 | 4:52.30 | 3:17.09 | 21930 | 36713 4 | 8:09.39 | 2:00.55 | 36714 | 45768 5 | 10:10.19 | 2:23.65 | 45769 | 56558 6 | 12:34.09 | 2:12.01 | 56559 | 66459 7 | 14:46.10 | 2:11.14 | 66460 | 76298 8 | 16:57.24 | 2:44.20 | 76299 | 88618 9 | 19:41.44 | 2:33.67 | 88619 | 100160 10 | 22:15.36 | 2:49.57 | 100161 | 112892 11 | 25:05.18 | 2:35.65 | 112893 | 124582 12 | 27:41.08 | 2:26.21 | 124583 | 135553

Range status and errors

Selected range

Filename C:\EAC\Herb Alpert & The Tijuana Brass - (1966) S.R.O [2005 Shout! Factory Remaster]\Herb Alpert & The Tijuana Brass - S.R.O [2005 Shout! Factory Remaster].wav

Peak level 100.0 % Extraction speed 5.3 X Range quality 99.9 % Test CRC 59DFE474 Copy CRC 59DFE474 Copy OK

No errors occurred

AccurateRip summary

Track 1 accurately ripped (confidence 13) [5E7D673D] (AR v2)Track 2 accurately ripped (confidence 14) [982E8905] (AR v2)Track 3 accurately ripped (confidence 14) [435B3D19] (AR v2)Track 4 accurately ripped (confidence 13) [D1029A3A] (AR v2)Track 5 accurately ripped (confidence 14) [1505DD93] (AR v2)Track 6 accurately ripped (confidence 14) [3EA4E69F] (AR v2)Track 7 accurately ripped (confidence 14) [34F524BD] (AR v2)Track 8 accurately ripped (confidence 14) [C6559AEF] (AR v2)Track 9 accurately ripped (confidence 14) [F54826B1] (AR v2)Track 10 accurately ripped (confidence 14) [C8C4BEC4] (AR v2)Track 11 accurately ripped (confidence 14) [F994723E] (AR v2)Track 12 accurately ripped (confidence 14) [75DAF494] (AR v2)

All tracks accurately ripped

End of status report

==== Log checksum 417E706D7628E581093AEA75409E5626E11212CBE57B93B7E1239E374F1BE62C ====
REM GENRE "Easy Listening"REM DATE 1966REM DISCID 9E070F0CREM COMMENT "ExactAudioCopy v1.0b2"PERFORMER "Herb Alpert & The Tijuana Brass"TITLE "S.R.O"FILE "Herb Alpert & The Tijuana Brass - S.R.O.flac" WAVE TRACK 01 AUDIO TITLE "Our Day Will Come" PERFORMER "Herb Alpert & The Tijuana Brass" INDEX 01 00:00:00 TRACK 02 AUDIO TITLE "Mexican Road Race" PERFORMER "Herb Alpert & The Tijuana Brass" INDEX 00 02:21:11 INDEX 01 02:22:46 TRACK 03 AUDIO TITLE "I Will Wait For You" PERFORMER "Herb Alpert & The Tijuana Brass" INDEX 00 04:51:44 INDEX 01 04:52:30 TRACK 04 AUDIO TITLE "Bean Bag" PERFORMER "Herb Alpert & The Tijuana Brass" INDEX 00 08:08:30 INDEX 01 08:09:39 TRACK 05 AUDIO TITLE "The Wall Street Rag" PERFORMER "Herb Alpert & The Tijuana Brass" INDEX 00 10:08:72 INDEX 01 10:10:19 TRACK 06 AUDIO TITLE "The Work Song" PERFORMER "Herb Alpert & The Tijuana Brass" INDEX 00 12:32:63 INDEX 01 12:34:09 TRACK 07 AUDIO TITLE "Mame" PERFORMER "Herb Alpert & The Tijuana Brass" INDEX 00 14:45:19 INDEX 01 14:46:10 TRACK 08 AUDIO TITLE "Blue Sunday" PERFORMER "Herb Alpert & The Tijuana Brass" INDEX 00 16:53:35 INDEX 01 16:57:24 TRACK 09 AUDIO TITLE "Don''t Go Breaking My Heart" PERFORMER "Herb Alpert & The Tijuana Brass" INDEX 00 19:38:47 INDEX 01 19:41:44 TRACK 10 AUDIO TITLE "For Carlos" PERFORMER "Herb Alpert & The Tijuana Brass" INDEX 00 22:11:02 INDEX 01 22:15:36 TRACK 11 AUDIO TITLE "Freight Train Joe" PERFORMER "Herb Alpert & The Tijuana Brass" INDEX 00 25:02:13 INDEX 01 25:05:18 TRACK 12 AUDIO TITLE "Flamingo" PERFORMER "Herb Alpert & The Tijuana Brass" INDEX 00 27:37:00 INDEX 01 27:41:08
Год издания: 2005
Номер по каталогу: DK 30849
Продолжительность: 31:31

Треклист:
01. What Now My Love (2:20)
02. Freckles (2:15)
03. Memories Of Madrid (2:42)
04. It Was A Very Good Year (3:42)
05. So What''s New (2:13)
06. Plucky (2:44)
07. Magic Trumpet (2:22)
08. Cantina Blue (2:38)
09. Brasilia (2:32)
10. If I Were A Rich Man (2:38)
11. Five Minutes More (1:56)
12. The Shadow Of Your Smile (3:30)
 
Exact Audio Copy V1.0 beta 2 from 29. April 2011

EAC extraction logfile from 17. August 2013, 19:23

Herb Alpert & The Tijuana Brass / What Now My Love [2005 Shout! Factory Remaster]

Used drive : HL-DT-STBD-RE BH14NS40 Adapter: 0 ID: 2

Read mode : SecureUtilize accurate stream : YesDefeat audio cache : YesMake use of C2 pointers : No

Read offset correction : 6Overread into Lead-In and Lead-Out : NoFill up missing offset samples with silence : YesDelete leading and trailing silent blocks : NoNull samples used in CRC calculations : YesUsed interface : Native Win32 interface for Win NT & 2000

Used output format : User Defined EncoderSelected bitrate : 1024 kBit/sQuality : HighAdd ID3 tag : NoCommand line compressor : C:\Program Files (x86)\Exact Audio Copy\Flac\flac.exeAdditional command line options : -V -5 -T "artist=%albumartist%" -T "title=%title%" -T "album=%albumtitle%" -T "date=%year%" -T "genre=%genre%" -T "tracknumber=%tracknr%" %source%

TOC of the extracted CD

Track | Start | Length | Start sector | End sector --------------------------------------------------------- 1 | 0:00.00 | 2:19.53 | 0 | 10477 2 | 2:19.53 | 2:15.19 | 10478 | 20621 3 | 4:34.72 | 2:41.59 | 20622 | 32755 4 | 7:16.56 | 3:42.10 | 32756 | 49415 5 | 10:58.66 | 2:12.60 | 49416 | 59375 6 | 13:11.51 | 2:44.10 | 59376 | 71685 7 | 15:55.61 | 2:22.03 | 71686 | 82338 8 | 18:17.64 | 2:37.45 | 82339 | 94158 9 | 20:55.34 | 2:31.56 | 94159 | 105539 10 | 23:27.15 | 2:38.04 | 105540 | 117393 11 | 26:05.19 | 1:55.56 | 117394 | 126074 12 | 28:01.00 | 3:30.32 | 126075 | 141856

Range status and errors

Selected range

Filename C:\EAC\Herb Alpert & The Tijuana Brass - (1966) What Now My Love [2005 Shout! Factory Remaster]\Herb Alpert & The Tijuana Brass - What Now My Love [2005 Shout! Factory Remaster].wav

Peak level 100.0 % Extraction speed 5.4 X Range quality 99.9 % Test CRC 042F4939 Copy CRC 042F4939 Copy OK

No errors occurred

AccurateRip summary

Track 1 accurately ripped (confidence 11) [E9689355] (AR v2)Track 2 accurately ripped (confidence 11) [C9ADD8D4] (AR v2)Track 3 accurately ripped (confidence 10) [44A7993E] (AR v2)Track 4 accurately ripped (confidence 10) [3124FBA7] (AR v2)Track 5 accurately ripped (confidence 11) [B79BF843] (AR v2)Track 6 accurately ripped (confidence 11) [16B02615] (AR v2)Track 7 accurately ripped (confidence 11) [A6F55984] (AR v2)Track 8 accurately ripped (confidence 10) [740E4F76] (AR v2)Track 9 accurately ripped (confidence 11) [752018AE] (AR v2)Track 10 accurately ripped (confidence 11) [A7F4DECD] (AR v2)Track 11 accurately ripped (confidence 11) [2214BCC4] (AR v2)Track 12 accurately ripped (confidence 10) [126D4B7B] (AR v2)

All tracks accurately ripped

End of status report

==== Log checksum 5F88FE616173D2298E6071FE9BF2E6C4387358C4B879F23753295AFF0BDDD5EA ====
REM GENRE "Easy Listening"REM DATE 1966REM DISCID AF07630CREM COMMENT "ExactAudioCopy v1.0b2"PERFORMER "Herb Alpert & The Tijuana Brass"TITLE "What Now My Love"FILE "Herb Alpert & The Tijuana Brass - What Now My Love.flac" WAVE TRACK 01 AUDIO TITLE "What Now My Love" PERFORMER "Herb Alpert & The Tijuana Brass" INDEX 01 00:00:00 TRACK 02 AUDIO TITLE "Freckles" PERFORMER "Herb Alpert & The Tijuana Brass" INDEX 00 02:15:74 INDEX 01 02:19:53 TRACK 03 AUDIO TITLE "Memories Of Madrid" PERFORMER "Herb Alpert & The Tijuana Brass" INDEX 00 04:32:03 INDEX 01 04:34:72 TRACK 04 AUDIO TITLE "It Was A Very Good Year" PERFORMER "Herb Alpert & The Tijuana Brass" INDEX 00 07:13:57 INDEX 01 07:16:56 TRACK 05 AUDIO TITLE "So What''s New" PERFORMER "Herb Alpert & The Tijuana Brass" INDEX 00 10:56:04 INDEX 01 10:58:66 TRACK 06 AUDIO TITLE "Plucky" PERFORMER "Herb Alpert & The Tijuana Brass" INDEX 00 13:08:05 INDEX 01 13:11:51 TRACK 07 AUDIO TITLE "Magic Trumpet" PERFORMER "Herb Alpert & The Tijuana Brass" INDEX 00 15:53:30 INDEX 01 15:55:61 TRACK 08 AUDIO TITLE "Cantina Blue" PERFORMER "Herb Alpert & The Tijuana Brass" INDEX 00 18:15:09 INDEX 01 18:17:64 TRACK 09 AUDIO TITLE "Brasilia" PERFORMER "Herb Alpert & The Tijuana Brass" INDEX 00 20:52:25 INDEX 01 20:55:34 TRACK 10 AUDIO TITLE "If I Were A Rich Man" PERFORMER "Herb Alpert & The Tijuana Brass" INDEX 00 23:24:15 INDEX 01 23:27:15 TRACK 11 AUDIO TITLE "Five Minutes More" PERFORMER "Herb Alpert & The Tijuana Brass" INDEX 00 26:02:50 INDEX 01 26:05:19 TRACK 12 AUDIO TITLE "The Shadow Of Your Smile" PERFORMER "Herb Alpert & The Tijuana Brass" INDEX 00 27:58:47 INDEX 01 28:01:00
Год издания: 2005
Номер по каталогу: DK 33466
Продолжительность: 29:19

Треклист:
01. A Banda (2:16)
02. My Heart Belongs To Daddy (2:02)
03. The Trolley Song (2:44)
04. The Happening (2:31)
05. Bud (3:42)
06. Love So Fine (2:33)
07. The Love Nest (1:58)
08. With A Little Help From My Friends (2:47)
09. Flea Bag (2:09)
10. Cowboys And Indians (2:56)
11. Carmen (3:40)
 
Exact Audio Copy V1.0 beta 2 from 29. April 2011

EAC extraction logfile from 17. August 2013, 17:26

Herb Alpert And The Tijuana Brass / Herb Alpert''s Ninth [2005 Shout! Factory Remaster]

Used drive : HL-DT-STBD-RE BH14NS40 Adapter: 0 ID: 2

Read mode : SecureUtilize accurate stream : YesDefeat audio cache : YesMake use of C2 pointers : No

Read offset correction : 6Overread into Lead-In and Lead-Out : NoFill up missing offset samples with silence : YesDelete leading and trailing silent blocks : NoNull samples used in CRC calculations : YesUsed interface : Native Win32 interface for Win NT & 2000

Used output format : User Defined EncoderSelected bitrate : 1024 kBit/sQuality : HighAdd ID3 tag : NoCommand line compressor : C:\Program Files (x86)\Exact Audio Copy\Flac\flac.exeAdditional command line options : -V -5 -T "artist=%albumartist%" -T "title=%title%" -T "album=%albumtitle%" -T "date=%year%" -T "genre=%genre%" -T "tracknumber=%tracknr%" %source%

TOC of the extracted CD

Track | Start | Length | Start sector | End sector --------------------------------------------------------- 1 | 0:00.00 | 2:15.72 | 0 | 10196 2 | 2:15.72 | 2:01.56 | 10197 | 19327 3 | 4:17.53 | 2:43.58 | 19328 | 31610 4 | 7:01.36 | 2:30.40 | 31611 | 42900 5 | 9:32.01 | 3:42.33 | 42901 | 59583 6 | 13:14.34 | 2:33.26 | 59584 | 71084 7 | 15:47.60 | 1:58.09 | 71085 | 79943 8 | 17:45.69 | 2:47.20 | 79944 | 92488 9 | 20:33.14 | 2:08.48 | 92489 | 102136 10 | 22:41.62 | 2:56.35 | 102137 | 115371 11 | 25:38.22 | 3:40.21 | 115372 | 131892

Range status and errors

Selected range

Filename C:\EAC\Herb Alpert And The Tijuana Brass - (1967) Herb Alpert''s Ninth [2005 Shout! Factory Remaster]\Herb Alpert And The Tijuana Brass - Herb Alpert''s Ninth [2005 Shout! Factory Remaster].wav

Peak level 100.0 % Extraction speed 5.3 X Range quality 100.0 % Test CRC 0CCE031F Copy CRC 0CCE031F Copy OK

No errors occurred

AccurateRip summary

Track 1 accurately ripped (confidence 6) [E872E287] (AR v2)Track 2 accurately ripped (confidence 6) [3CD443C2] (AR v2)Track 3 accurately ripped (confidence 6) [DB79707E] (AR v2)Track 4 accurately ripped (confidence 6) [67BCD0FC] (AR v2)Track 5 accurately ripped (confidence 6) [B7F683A6] (AR v2)Track 6 accurately ripped (confidence 6) [69F2A27B] (AR v2)Track 7 accurately ripped (confidence 6) [A637796B] (AR v2)Track 8 accurately ripped (confidence 6) [0C7B9C36] (AR v2)Track 9 accurately ripped (confidence 6) [A9C48B5D] (AR v2)Track 10 accurately ripped (confidence 6) [666D5585] (AR v2)Track 11 accurately ripped (confidence 6) [4A2DB4F1] (AR v2)

All tracks accurately ripped

End of status report

==== Log checksum 8B1B9A25A3898AC4745CB8193C3C4568C1A2CFE828DD29E9DB6D980FBD5D140D ====
REM GENRE "Easy Listening"REM DATE 1967REM DISCID 9206DE0BREM COMMENT "ExactAudioCopy v1.0b2"PERFORMER "Herb Alpert And The Tijuana Brass"TITLE "Herb Alpert''s Ninth"FILE "Herb Alpert & The Tijuana Brass - Herb Alpert''s Ninth.flac" WAVE TRACK 01 AUDIO TITLE "A Banda" PERFORMER "Herb Alpert And The Tijuana Brass" INDEX 01 00:00:00 TRACK 02 AUDIO TITLE "My Heart Belongs To Daddy" PERFORMER "Herb Alpert And The Tijuana Brass" INDEX 00 02:12:08 INDEX 01 02:15:72 TRACK 03 AUDIO TITLE "The Trolley Song" PERFORMER "Herb Alpert And The Tijuana Brass" INDEX 00 04:14:05 INDEX 01 04:17:53 TRACK 04 AUDIO TITLE "The Happening" PERFORMER "Herb Alpert And The Tijuana Brass" INDEX 00 06:57:47 INDEX 01 07:01:36 TRACK 05 AUDIO TITLE "Bud" PERFORMER "Herb Alpert And The Tijuana Brass" INDEX 00 09:28:35 INDEX 01 09:32:01 TRACK 06 AUDIO TITLE "Love So Fine" PERFORMER "Herb Alpert And The Tijuana Brass" INDEX 00 13:10:18 INDEX 01 13:14:34 TRACK 07 AUDIO TITLE "The Love Nest" PERFORMER "Herb Alpert And The Tijuana Brass" INDEX 00 15:44:10 INDEX 01 15:47:60 TRACK 08 AUDIO TITLE "With A Little Help From My Friends" PERFORMER "Herb Alpert And The Tijuana Brass" INDEX 00 17:42:26 INDEX 01 17:45:69 TRACK 09 AUDIO TITLE "Flea Bag" PERFORMER "Herb Alpert And The Tijuana Brass" INDEX 00 20:29:54 INDEX 01 20:33:14 TRACK 10 AUDIO TITLE "Cowboys And Indians" PERFORMER "Herb Alpert And The Tijuana Brass" INDEX 00 22:37:73 INDEX 01 22:41:62 TRACK 11 AUDIO TITLE "Carmen" PERFORMER "Herb Alpert And The Tijuana Brass" INDEX 00 25:34:44 INDEX 01 25:38:22
Год издания: 2005
Номер по каталогу: DK 32995
Продолжительность: 28:07

Треклист:
01. Gotta Lotta Livin'' To Do (2:51)
02. Lady Godiva (2:11)
03. Bo-Bo (3:12)
04. Shades Of Blue (2:48)
05. In A Little Spanish Town (1:57)
06. Wade In The Water (3:08)
07. Town Without Pity (2:19)
08. The Charmer (2:17)
09. Treasure Of San Miguel (2:18)
10. Miss Frenchy Brown (2:31)
11. Casino Royale (2:36)
 
Exact Audio Copy V1.0 beta 2 from 29. April 2011

EAC extraction logfile from 17. August 2013, 17:57

Herb Alpert & The Tijuana Brass / ...Sounds Like... [2005 Shout! Factory Remaster]

Used drive : HL-DT-STBD-RE BH14NS40 Adapter: 0 ID: 2

Read mode : SecureUtilize accurate stream : YesDefeat audio cache : YesMake use of C2 pointers : No

Read offset correction : 6Overread into Lead-In and Lead-Out : NoFill up missing offset samples with silence : YesDelete leading and trailing silent blocks : NoNull samples used in CRC calculations : YesUsed interface : Native Win32 interface for Win NT & 2000

Used output format : User Defined EncoderSelected bitrate : 1024 kBit/sQuality : HighAdd ID3 tag : NoCommand line compressor : C:\Program Files (x86)\Exact Audio Copy\Flac\flac.exeAdditional command line options : -V -5 -T "artist=%albumartist%" -T "title=%title%" -T "album=%albumtitle%" -T "date=%year%" -T "genre=%genre%" -T "tracknumber=%tracknr%" %source%

TOC of the extracted CD

Track | Start | Length | Start sector | End sector --------------------------------------------------------- 1 | 0:00.00 | 2:51.03 | 0 | 12827 2 | 2:51.03 | 2:10.50 | 12828 | 22627 3 | 5:01.53 | 3:12.13 | 22628 | 37040 4 | 8:13.66 | 2:47.49 | 37041 | 49614 5 | 11:01.40 | 1:57.05 | 49615 | 58394 6 | 12:58.45 | 3:08.09 | 58395 | 72503 7 | 16:06.54 | 2:18.42 | 72504 | 82895 8 | 18:25.21 | 2:16.39 | 82896 | 93134 9 | 20:41.60 | 2:18.07 | 93135 | 103491 10 | 22:59.67 | 2:31.15 | 103492 | 114831 11 | 25:31.07 | 2:35.73 | 114832 | 126529

Range status and errors

Selected range

Filename C:\EAC\Herb Alpert & The Tijuana Brass - (1967) ...Sounds Like... [2005 Shout! Factory Remaster]\Herb Alpert & The Tijuana Brass - ...Sounds Like... [2005 Shout! Factory Remaster].wav

Peak level 100.0 % Extraction speed 5.5 X Range quality 100.0 % Test CRC 07A60498 Copy CRC 07A60498 Copy OK

No errors occurred

AccurateRip summary

Track 1 accurately ripped (confidence 10) [CB13B53C] (AR v2)Track 2 accurately ripped (confidence 10) [12090EDE] (AR v2)Track 3 accurately ripped (confidence 10) [B51E60CC] (AR v2)Track 4 accurately ripped (confidence 10) [848C829A] (AR v2)Track 5 accurately ripped (confidence 10) [D1D8965F] (AR v2)Track 6 accurately ripped (confidence 10) [6F069688] (AR v2)Track 7 accurately ripped (confidence 10) [290B9174] (AR v2)Track 8 accurately ripped (confidence 10) [96911A65] (AR v2)Track 9 accurately ripped (confidence 10) [D0128FF2] (AR v2)Track 10 accurately ripped (confidence 10) [551DFFFD] (AR v2)Track 11 accurately ripped (confidence 10) [D3000D66] (AR v2)

All tracks accurately ripped

End of status report

==== Log checksum 3A2EE04FC3ECE898C675222DC98938D57DB57773A5E5ED9C1DFE9EB76656F30C ====
REM GENRE "Easy Listening"REM DATE 1967REM DISCID 8606970BREM COMMENT "ExactAudioCopy v1.0b2"PERFORMER "Herb Alpert & The Tijuana Brass"TITLE "...Sounds Like..."FILE "Herb Alpert & The Tijuana Brass - ...Sounds Like....flac" WAVE TRACK 01 AUDIO TITLE "Gotta Lotta Livin'' To Do" PERFORMER "Herb Alpert & The Tijuana Brass" INDEX 01 00:00:00 TRACK 02 AUDIO TITLE "Lady Godiva" PERFORMER "Herb Alpert & The Tijuana Brass" INDEX 00 02:47:05 INDEX 01 02:51:03 TRACK 03 AUDIO TITLE "Bo-Bo" PERFORMER "Herb Alpert & The Tijuana Brass" INDEX 00 04:57:57 INDEX 01 05:01:53 TRACK 04 AUDIO TITLE "Shades Of Blue" PERFORMER "Herb Alpert & The Tijuana Brass" INDEX 00 08:09:62 INDEX 01 08:13:66 TRACK 05 AUDIO TITLE "In A Little Spanish Town" PERFORMER "Herb Alpert & The Tijuana Brass" INDEX 00 10:57:38 INDEX 01 11:01:40 TRACK 06 AUDIO TITLE "Wade In The Water" PERFORMER "Herb Alpert & The Tijuana Brass" INDEX 00 12:54:68 INDEX 01 12:58:45 TRACK 07 AUDIO TITLE "Town Without Pity" PERFORMER "Herb Alpert & The Tijuana Brass" INDEX 00 16:02:58 INDEX 01 16:06:54 TRACK 08 AUDIO TITLE "The Charmer" PERFORMER "Herb Alpert & The Tijuana Brass" INDEX 00 18:21:23 INDEX 01 18:25:21 TRACK 09 AUDIO TITLE "Treasure Of San Miguel" PERFORMER "Herb Alpert & The Tijuana Brass" INDEX 00 20:37:56 INDEX 01 20:41:60 TRACK 10 AUDIO TITLE "Miss Frenchy Brown" PERFORMER "Herb Alpert & The Tijuana Brass" INDEX 00 22:55:59 INDEX 01 22:59:67 TRACK 11 AUDIO TITLE "Casino Royale" PERFORMER "Herb Alpert & The Tijuana Brass" INDEX 00 25:27:15 INDEX 01 25:31:07
Год издания: 2005
Номер по каталогу: DK 34411
Продолжительность: 32:01

Треклист:
01. Winter Wonderland (3:06)
02. Jingle Bells (3:11)
03. My Favorite Things (3:06)
04. The Christmas Song (3:41)
05. Las Maсanitas (3:00)
06. Sleigh Ride (4:01)
07. The Bell That Couldn''t Jingle (2:56)
08. Let It Snow, Let It Snow, Let It Snow (3:45)
09. Jingle Bell Rock (1:52)
10. Jesu, Joy of Man''s Desiring (3:23)
 
Exact Audio Copy V1.0 beta 2 from 29. April 2011

EAC extraction logfile from 18. August 2013, 18:06

Herb Alpert & The Tijuana Brass / Christmas Album [2005 Shout! Factory Remaster]

Used drive : HL-DT-STBD-RE BH14NS40 Adapter: 0 ID: 2

Read mode : SecureUtilize accurate stream : YesDefeat audio cache : YesMake use of C2 pointers : No

Read offset correction : 6Overread into Lead-In and Lead-Out : NoFill up missing offset samples with silence : YesDelete leading and trailing silent blocks : NoNull samples used in CRC calculations : YesUsed interface : Native Win32 interface for Win NT & 2000

Used output format : User Defined EncoderSelected bitrate : 1024 kBit/sQuality : HighAdd ID3 tag : NoCommand line compressor : C:\Program Files (x86)\Exact Audio Copy\Flac\flac.exeAdditional command line options : -V -5 -T "artist=%albumartist%" -T "title=%title%" -T "album=%albumtitle%" -T "date=%year%" -T "genre=%genre%" -T "tracknumber=%tracknr%" %source%

TOC of the extracted CD

Track | Start | Length | Start sector | End sector --------------------------------------------------------- 1 | 0:00.00 | 3:06.23 | 0 | 13972 2 | 3:06.23 | 3:11.15 | 13973 | 28312 3 | 6:17.38 | 3:05.58 | 28313 | 42245 4 | 9:23.21 | 3:40.73 | 42246 | 58818 5 | 13:04.19 | 2:59.49 | 58819 | 72292 6 | 16:03.68 | 4:00.43 | 72293 | 90335 7 | 20:04.36 | 2:56.32 | 90336 | 103567 8 | 23:00.68 | 3:45.19 | 103568 | 120461 9 | 26:46.12 | 1:52.25 | 120462 | 128886 10 | 28:38.37 | 3:22.64 | 128887 | 144100

Range status and errors

Selected range

Filename C:\EAC\Herb Alpert & The Tijuana Brass - (1968) Christmas Album [2005 Shout! Factory Remaster]\Herb Alpert & The Tijuana Brass - Christmas Album [2005 Shout! Factory Remaster].wav

Peak level 100.0 % Extraction speed 5.2 X Range quality 100.0 % Test CRC 59449977 Copy CRC 59449977 Copy OK

No errors occurred

AccurateRip summary

Track 1 accurately ripped (confidence 8) [44E7E394] (AR v2)Track 2 accurately ripped (confidence 8) [D48902FD] (AR v2)Track 3 accurately ripped (confidence 8) [1D2E3B07] (AR v2)Track 4 accurately ripped (confidence 8) [079071D6] (AR v2)Track 5 accurately ripped (confidence 8) [4A1E2BF6] (AR v2)Track 6 accurately ripped (confidence 8) [4E9220D5] (AR v2)Track 7 accurately ripped (confidence 8) [E9FB842B] (AR v2)Track 8 accurately ripped (confidence 8) [288A366D] (AR v2)Track 9 accurately ripped (confidence 8) [191FE5CD] (AR v2)Track 10 accurately ripped (confidence 8) [D5F2CA8F] (AR v2)

All tracks accurately ripped

End of status report

==== Log checksum BEB9743E5359A40995B36250429059FDD531B491BE5E4C585A4F24F251BD3FD9 ====
REM GENRE "Easy Listening"REM DATE 1968REM DISCID 8F07810AREM COMMENT "ExactAudioCopy v1.0b2"PERFORMER "Herb Alpert & The Tijuana Brass"TITLE "Christmas Album"FILE "Herb Alpert & The Tijuana Brass - Christmas Album.flac" WAVE TRACK 01 AUDIO TITLE "Winter Wonderland" PERFORMER "Herb Alpert & The Tijuana Brass" INDEX 01 00:00:00 TRACK 02 AUDIO TITLE "Jingle Bells" PERFORMER "Herb Alpert & The Tijuana Brass" INDEX 00 03:02:24 INDEX 01 03:06:23 TRACK 03 AUDIO TITLE "My Favorite Things" PERFORMER "Herb Alpert & The Tijuana Brass" INDEX 00 06:13:54 INDEX 01 06:17:38 TRACK 04 AUDIO TITLE "The Christmas Song" PERFORMER "Herb Alpert & The Tijuana Brass" INDEX 00 09:18:32 INDEX 01 09:23:21 TRACK 05 AUDIO TITLE "Las Maсanitas" PERFORMER "Herb Alpert & The Tijuana Brass" INDEX 00 13:00:11 INDEX 01 13:04:19 TRACK 06 AUDIO TITLE "Sleigh Ride" PERFORMER "Herb Alpert & The Tijuana Brass" INDEX 00 16:00:21 INDEX 01 16:03:68 TRACK 07 AUDIO TITLE "The Bell That Couldn''t Jingle" PERFORMER "Herb Alpert & The Tijuana Brass" INDEX 00 19:59:07 INDEX 01 20:04:36 TRACK 08 AUDIO TITLE "Let It Snow, Let It Snow, Let It Snow" PERFORMER "Herb Alpert & The Tijuana Brass" INDEX 00 22:57:46 INDEX 01 23:00:68 TRACK 09 AUDIO TITLE "Jingle Bell Rock" PERFORMER "Herb Alpert & The Tijuana Brass" INDEX 00 26:42:11 INDEX 01 26:46:12 TRACK 10 AUDIO TITLE "Jesu, Joy of Man''s Desiring" PERFORMER "Herb Alpert & The Tijuana Brass" INDEX 00 28:35:22 INDEX 01 28:38:37
Год издания: 2005
Номер по каталогу: DK 33723
Продолжительность: 32:23

Треклист:
01. Monday, Monday (3:10)
02. A Beautiful Friend (3:19)
03. Cabaret (2:43)
04. Panama (3:35)
05. Belz Mein Shtetele Belz (My Home Town) (2:16)
06. Talk To The Animals (2:16)
07. Slick (3:32)
08. She Touched Me (3:00)
09. Thanks For The Memory (2:08)
10. The Robin (2:25)
11. This Guy''s In Love With You (4:00)
 
Exact Audio Copy V1.0 beta 2 from 29. April 2011

EAC extraction logfile from 17. August 2013, 16:06

Herb Alpert & The Tijuana Brass / The Beat Of The Brass [2005 Shout! Factory Remaster]

Used drive : HL-DT-STBD-RE BH14NS40 Adapter: 0 ID: 2

Read mode : SecureUtilize accurate stream : YesDefeat audio cache : YesMake use of C2 pointers : No

Read offset correction : 6Overread into Lead-In and Lead-Out : NoFill up missing offset samples with silence : YesDelete leading and trailing silent blocks : NoNull samples used in CRC calculations : YesUsed interface : Native Win32 interface for Win NT & 2000

Used output format : User Defined EncoderSelected bitrate : 1024 kBit/sQuality : HighAdd ID3 tag : NoCommand line compressor : C:\Program Files (x86)\Exact Audio Copy\Flac\flac.exeAdditional command line options : -V -5 -T "artist=%albumartist%" -T "title=%title%" -T "album=%albumtitle%" -T "date=%year%" -T "genre=%genre%" -T "tracknumber=%tracknr%" %source%

TOC of the extracted CD

Track | Start | Length | Start sector | End sector --------------------------------------------------------- 1 | 0:00.00 | 3:09.54 | 0 | 14228 2 | 3:09.54 | 3:18.59 | 14229 | 29137 3 | 6:28.38 | 2:42.65 | 29138 | 41352 4 | 9:11.28 | 3:34.63 | 41353 | 57465 5 | 12:46.16 | 2:16.09 | 57466 | 67674 6 | 15:02.25 | 2:16.22 | 67675 | 77896 7 | 17:18.47 | 3:32.19 | 77897 | 93815 8 | 20:50.66 | 2:59.41 | 93816 | 107281 9 | 23:50.32 | 2:07.39 | 107282 | 116845 10 | 25:57.71 | 2:25.19 | 116846 | 127739 11 | 28:23.15 | 3:59.59 | 127740 | 145723

Range status and errors

Selected range

Filename C:\EAC\Herb Alpert & The Tijuana Brass - (1968) The Beat Of The Brass [2005 Shout! Factory Remaster]\Herb Alpert & The Tijuana Brass - The Beat Of The Brass [2005 Shout! Factory Remaster].wav

Peak level 100.0 % Extraction speed 5.6 X Range quality 100.0 % Test CRC 12DF19C9 Copy CRC 12DF19C9 Copy OK

No errors occurred

AccurateRip summary

Track 1 accurately ripped (confidence 7) [D2543B5E] (AR v2)Track 2 accurately ripped (confidence 7) [38724CB8] (AR v2)Track 3 accurately ripped (confidence 7) [FAC6E43C] (AR v2)Track 4 accurately ripped (confidence 7) [A3AD0D44] (AR v2)Track 5 accurately ripped (confidence 7) [C630C413] (AR v2)Track 6 accurately ripped (confidence 7) [58BE1573] (AR v2)Track 7 accurately ripped (confidence 7) [325463A3] (AR v2)Track 8 accurately ripped (confidence 7) [3CF94158] (AR v2)Track 9 accurately ripped (confidence 7) [06AD7D3C] (AR v2)Track 10 accurately ripped (confidence 7) [856ADC80] (AR v2)Track 11 accurately ripped (confidence 7) [D3F8F3BF] (AR v2)

All tracks accurately ripped

End of status report

==== Log checksum A21EBAAF2B8F3C686034751DAD29F17DA16186552F6EC3A204B5C2511C06B76E ====
REM GENRE "Easy Listening"REM DATE 1968REM DISCID 8207960BREM COMMENT "ExactAudioCopy v1.0b2"PERFORMER "Herb Alpert & The Tijuana Brass"TITLE "The Beat Of The Brass"FILE "Herb Alpert & The Tijuana Brass - The Beat Of The Brass.flac" WAVE TRACK 01 AUDIO TITLE "Monday, Monday" PERFORMER "Herb Alpert & The Tijuana Brass" INDEX 01 00:00:00 TRACK 02 AUDIO TITLE "A Beautiful Friend" PERFORMER "Herb Alpert & The Tijuana Brass" INDEX 00 03:08:01 INDEX 01 03:09:54 TRACK 03 AUDIO TITLE "Cabaret" PERFORMER "Herb Alpert & The Tijuana Brass" INDEX 00 06:26:33 INDEX 01 06:28:38 TRACK 04 AUDIO TITLE "Panama" PERFORMER "Herb Alpert & The Tijuana Brass" INDEX 00 09:09:38 INDEX 01 09:11:28 TRACK 05 AUDIO TITLE "Belz Mein Shtetele Belz (My Home Town)" PERFORMER "Herb Alpert & The Tijuana Brass" INDEX 00 12:44:40 INDEX 01 12:46:16 TRACK 06 AUDIO TITLE "Talk To The Animals" PERFORMER "Herb Alpert & The Tijuana Brass" INDEX 00 15:00:28 INDEX 01 15:02:25 TRACK 07 AUDIO TITLE "Slick" PERFORMER "Herb Alpert & The Tijuana Brass" INDEX 00 17:16:57 INDEX 01 17:18:47 TRACK 08 AUDIO TITLE "She Touched Me" PERFORMER "Herb Alpert & The Tijuana Brass" INDEX 00 20:48:74 INDEX 01 20:50:66 TRACK 09 AUDIO TITLE "Thanks For The Memory" PERFORMER "Herb Alpert & The Tijuana Brass" INDEX 00 23:48:51 INDEX 01 23:50:32 TRACK 10 AUDIO TITLE "The Robin" PERFORMER "Herb Alpert & The Tijuana Brass" INDEX 00 25:56:21 INDEX 01 25:57:71 TRACK 11 AUDIO TITLE "This Guy''s In Love With You" PERFORMER "Herb Alpert & The Tijuana Brass" INDEX 00 28:20:62 INDEX 01 28:23:15
Год издания: 2007
Номер по каталогу: 826663-10484
Продолжительность: 50:58

Треклист:
01. 1980 (2:26)
02. Rise (7:37)
03. Behind The Rain (5:33)
04. Rotation (5:13)
05. Aranjuez (Mon Amour) (6:42)
06. Love Is (4:30)
07. Angelina (4:13)
08. Street Life (5:05)
09. Rotation (Alternate Version) (4:31)
10. Aranjuez (Mon Amour) (2007 Dance Mix) (5:09)
 
Exact Audio Copy V1.0 beta 2 from 29. April 2011

EAC extraction logfile from 17. August 2013, 21:21

Herb Alpert / Rise [2007 Shout! Factory Remaster]

Used drive : HL-DT-STBD-RE BH14NS40 Adapter: 0 ID: 2

Read mode : SecureUtilize accurate stream : YesDefeat audio cache : YesMake use of C2 pointers : No

Read offset correction : 6Overread into Lead-In and Lead-Out : NoFill up missing offset samples with silence : YesDelete leading and trailing silent blocks : NoNull samples used in CRC calculations : YesUsed interface : Native Win32 interface for Win NT & 2000

Used output format : User Defined EncoderSelected bitrate : 1024 kBit/sQuality : HighAdd ID3 tag : NoCommand line compressor : C:\Program Files (x86)\Exact Audio Copy\Flac\flac.exeAdditional command line options : -V -5 -T "artist=%albumartist%" -T "title=%title%" -T "album=%albumtitle%" -T "date=%year%" -T "genre=%genre%" -T "tracknumber=%tracknr%" %source%

TOC of the extracted CD

Track | Start | Length | Start sector | End sector --------------------------------------------------------- 1 | 0:00.00 | 2:25.63 | 0 | 10937 2 | 2:25.63 | 7:37.15 | 10938 | 45227 3 | 10:03.03 | 5:32.53 | 45228 | 70180 4 | 15:35.56 | 5:12.45 | 70181 | 93625 5 | 20:48.26 | 6:42.19 | 93626 | 123794 6 | 27:30.45 | 4:29.40 | 123795 | 144009 7 | 32:00.10 | 4:12.69 | 144010 | 162978 8 | 36:13.04 | 5:04.42 | 162979 | 185820 9 | 41:17.46 | 4:31.29 | 185821 | 206174 10 | 45:49.00 | 5:08.60 | 206175 | 229334

Range status and errors

Selected range

Filename C:\EAC\Herb Alpert - (1979) Rise [2007 Shout! Factory Remaster]\Herb Alpert - Rise [2007 Shout! Factory Remaster].wav

Peak level 98.8 % Extraction speed 6.3 X Range quality 100.0 % Test CRC 2EEB34AB Copy CRC 2EEB34AB Copy OK

No errors occurred

AccurateRip summary

Track 1 accurately ripped (confidence 10) [00FD62B1] (AR v2)Track 2 accurately ripped (confidence 10) [0C4F7667] (AR v2)Track 3 accurately ripped (confidence 10) [FB3ACBC9] (AR v2)Track 4 accurately ripped (confidence 10) [ED3E5303] (AR v2)Track 5 accurately ripped (confidence 10) [3BD48A44] (AR v2)Track 6 accurately ripped (confidence 10) [5CB45B54] (AR v2)Track 7 accurately ripped (confidence 10) [DE54FB3E] (AR v2)Track 8 accurately ripped (confidence 10) [7A2BD39D] (AR v2)Track 9 accurately ripped (confidence 10) [46B10CDF] (AR v2)Track 10 accurately ripped (confidence 10) [AF123C6D] (AR v2)

All tracks accurately ripped

End of status report

==== Log checksum F23290F5131E1C15B431820635DEB86563DFAE4F21F72A249C404BB4ADD039E8 ====
REM GENRE "Easy Listening"REM DATE 1979REM DISCID 840BF10AREM COMMENT "ExactAudioCopy v1.0b2"PERFORMER "Herb Alpert"TITLE "Rise"FILE "Herb Alpert - Rise.flac" WAVE TRACK 01 AUDIO TITLE "1980" PERFORMER "Herb Alpert" INDEX 01 00:00:00 TRACK 02 AUDIO TITLE "Rise" PERFORMER "Herb Alpert" INDEX 01 02:25:63 TRACK 03 AUDIO TITLE "Behind The Rain" PERFORMER "Herb Alpert" INDEX 01 10:03:03 TRACK 04 AUDIO TITLE "Rotation" PERFORMER "Herb Alpert" INDEX 01 15:35:56 TRACK 05 AUDIO TITLE "Aranjuez (Mon Amour)" PERFORMER "Herb Alpert" INDEX 00 20:47:47 INDEX 01 20:48:26 TRACK 06 AUDIO TITLE "Love Is" PERFORMER "Herb Alpert" INDEX 00 27:29:70 INDEX 01 27:30:45 TRACK 07 AUDIO TITLE "Angelina" PERFORMER "Herb Alpert" INDEX 00 31:59:34 INDEX 01 32:00:10 TRACK 08 AUDIO TITLE "Street Life" PERFORMER "Herb Alpert" INDEX 00 36:12:28 INDEX 01 36:13:04 TRACK 09 AUDIO TITLE "Rotation (Alternate Version)" PERFORMER "Herb Alpert" INDEX 00 41:15:14 INDEX 01 41:17:46 TRACK 10 AUDIO TITLE "Aranjuez (Mon Amour) (2007 Dance Mix)" PERFORMER "Herb Alpert" INDEX 00 45:46:12 INDEX 01 45:49:00
Год издания: 2013
Номер по каталогу: 826663-13840
Продолжительность: 43:14

Треклист:
01. Fandango (3:43)
02. Margarita (3:46)
03. Push And Pull (4:09)
04. California Blues (3:54)
05. Quiereme Tal Como Soy (Love Me The Way I Am) (3:42)
06. Route 101 (3:25)
07. Coco Loco (La Guajira) (2:59)
08. Aria (3:48)
09. Angel (2:56)
10. Sugarloaf (5:07)
11. Latin Medley (Frenesi, Bahia, Moliendo Cafe, Porompompero) (5:44)
 
Exact Audio Copy V1.0 beta 2 from 29. April 2011

EAC extraction logfile from 9. July 2013, 22:51

Herb Alpert / Fandango [2013 Shout! Factory Remaster]

Used drive : HL-DT-STBD-RE BH14NS40 Adapter: 0 ID: 2

Read mode : SecureUtilize accurate stream : YesDefeat audio cache : YesMake use of C2 pointers : No

Read offset correction : 6Overread into Lead-In and Lead-Out : NoFill up missing offset samples with silence : YesDelete leading and trailing silent blocks : NoNull samples used in CRC calculations : YesUsed interface : Native Win32 interface for Win NT & 2000

Used output format : User Defined EncoderSelected bitrate : 1024 kBit/sQuality : HighAdd ID3 tag : NoCommand line compressor : C:\Program Files (x86)\Exact Audio Copy\Flac\flac.exeAdditional command line options : -V -5 -T "artist=%albumartist%" -T "title=%title%" -T "album=%albumtitle%" -T "date=%year%" -T "genre=%genre%" -T "tracknumber=%tracknr%" %source%

TOC of the extracted CD

Track | Start | Length | Start sector | End sector --------------------------------------------------------- 1 | 0:00.00 | 3:43.15 | 0 | 16739 2 | 3:43.15 | 3:45.42 | 16740 | 33656 3 | 7:28.57 | 4:08.42 | 33657 | 52298 4 | 11:37.24 | 3:54.31 | 52299 | 69879 5 | 15:31.55 | 3:42.01 | 69880 | 86530 6 | 19:13.56 | 3:25.37 | 86531 | 101942 7 | 22:39.18 | 2:59.33 | 101943 | 115400 8 | 25:38.51 | 3:47.56 | 115401 | 132481 9 | 29:26.32 | 2:56.16 | 132482 | 145697 10 | 32:22.48 | 5:07.36 | 145698 | 168758 11 | 37:30.09 | 5:43.63 | 168759 | 194546

Range status and errors

Selected range

Filename C:\EAC\Herb Alpert - (1982) Fandango [2013 Shout! Factory Remaster]\Herb Alpert - Fandango [2013 Shout! Factory Remaster].wav

Peak level 100.0 % Extraction speed 6.2 X Range quality 100.0 % Test CRC E7339899 Copy CRC E7339899 Copy OK

No errors occurred

AccurateRip summary

Track 1 not present in databaseTrack 2 not present in databaseTrack 3 not present in databaseTrack 4 not present in databaseTrack 5 not present in databaseTrack 6 not present in databaseTrack 7 not present in databaseTrack 8 not present in databaseTrack 9 not present in databaseTrack 10 not present in databaseTrack 11 not present in database

None of the tracks are present in the AccurateRip database

End of status report

==== Log checksum 3787AF415257C22B409347FE597807C24794CDF5EBACAD9EA9561DC9BBDA50ED ====
REM GENRE "Easy Listening"REM DATE 1982REM DISCID 8F0A210BREM COMMENT "ExactAudioCopy v1.0b2"PERFORMER "Herb Alpert"TITLE "Fandango"FILE "Herb Alpert - Fandango.flac" WAVE TRACK 01 AUDIO TITLE "Fandango" PERFORMER "Herb Alpert" INDEX 01 00:00:00 TRACK 02 AUDIO TITLE "Margarita" PERFORMER "Herb Alpert" INDEX 00 03:41:14 INDEX 01 03:43:15 TRACK 03 AUDIO TITLE "Push And Pull" PERFORMER "Herb Alpert" INDEX 00 07:25:55 INDEX 01 07:28:57 TRACK 04 AUDIO TITLE "California Blues" PERFORMER "Herb Alpert" INDEX 00 11:34:05 INDEX 01 11:37:24 TRACK 05 AUDIO TITLE "Quiereme Tal Como Soy (Love Me The Way I Am)" PERFORMER "Herb Alpert" INDEX 00 15:27:51 INDEX 01 15:31:55 TRACK 06 AUDIO TITLE "Route 101" PERFORMER "Herb Alpert" INDEX 00 19:11:26 INDEX 01 19:13:56 TRACK 07 AUDIO TITLE "Coco Loco (La Guajira)" PERFORMER "Herb Alpert" INDEX 00 22:36:10 INDEX 01 22:39:18 TRACK 08 AUDIO TITLE "Aria" PERFORMER "Herb Alpert" INDEX 00 25:33:35 INDEX 01 25:38:51 TRACK 09 AUDIO TITLE "Angel" PERFORMER "Herb Alpert" INDEX 00 29:24:09 INDEX 01 29:26:32 TRACK 10 AUDIO TITLE "Sugarloaf" PERFORMER "Herb Alpert" INDEX 00 32:20:17 INDEX 01 32:22:48 TRACK 11 AUDIO TITLE "Latin Medley (Frenesi, Bahia, Moliendo Cafe, Porompompero)" PERFORMER "Herb Alpert" INDEX 00 37:27:46 INDEX 01 37:30:09
Год издания: 2005
Номер по каталогу: DK 32867
Продолжительность: 60:08

Треклист:
01. Up Cherry Street (2:36)
02. Lazy Day (2:57)
03. Wailing Of The Willow (2:52)
04. Fire And Rain (2:44)
05. And I Love Her (2:48)
06. I Can''t Go On Living, Baby, Without You (2:38)
07. (They Long To Be) Close To You (2:22)
08. Promises, Promises (2:34)
09. Happy Hour (1:53)
10. Julius And Me (1:33)
11. I Might Frighten Her Away (4:15)
12. Alone Again (Naturally) (2:15)
13. Tennessee Waltz (2:34)
14. Tradewinds (3:03)
15. Raindrops Keep Falling On My Head (2:03)
16. Flowers On The Wall (2:07)
17. Popcorn (3:45)
18. Chris (2:33)
19. Killing Me Softly (4:00)
20. I''ll Never Fall In Love Again (3:19)
21. Speakeasy (1:52)
22. Whistlestar (3:26)
 
Exact Audio Copy V1.0 beta 2 from 29. April 2011

EAC extraction logfile from 17. August 2013, 22:57

Herb Alpert & The Tijuana Brass / Lost Treasures [Shout! Factory Remaster]

Used drive : HL-DT-STBD-RE BH14NS40 Adapter: 0 ID: 2

Read mode : SecureUtilize accurate stream : YesDefeat audio cache : YesMake use of C2 pointers : No

Read offset correction : 6Overread into Lead-In and Lead-Out : NoFill up missing offset samples with silence : YesDelete leading and trailing silent blocks : NoNull samples used in CRC calculations : YesUsed interface : Native Win32 interface for Win NT & 2000

Used output format : User Defined EncoderSelected bitrate : 1024 kBit/sQuality : HighAdd ID3 tag : NoCommand line compressor : C:\Program Files (x86)\Exact Audio Copy\Flac\flac.exeAdditional command line options : -V -5 -T "artist=%albumartist%" -T "title=%title%" -T "album=%albumtitle%" -T "date=%year%" -T "genre=%genre%" -T "tracknumber=%tracknr%" %source%

TOC of the extracted CD

Track | Start | Length | Start sector | End sector --------------------------------------------------------- 1 | 0:00.00 | 2:35.67 | 0 | 11691 2 | 2:35.67 | 2:56.50 | 11692 | 24941 3 | 5:32.42 | 2:52.31 | 24942 | 37872 4 | 8:24.73 | 2:44.37 | 37873 | 50209 5 | 11:09.35 | 2:47.51 | 50210 | 62785 6 | 13:57.11 | 2:38.23 | 62786 | 74658 7 | 16:35.34 | 2:22.19 | 74659 | 85327 8 | 18:57.53 | 2:34.04 | 85328 | 96881 9 | 21:31.57 | 1:52.55 | 96882 | 105336 10 | 23:24.37 | 1:32.72 | 105337 | 112308 11 | 24:57.34 | 4:14.41 | 112309 | 131399 12 | 29:12.00 | 2:14.54 | 131400 | 141503 13 | 31:26.54 | 2:33.64 | 141504 | 153042 14 | 34:00.43 | 3:03.35 | 153043 | 166802 15 | 37:04.03 | 2:02.43 | 166803 | 175995 16 | 39:06.46 | 2:06.60 | 175996 | 185505 17 | 41:13.31 | 3:45.06 | 185506 | 202386 18 | 44:58.37 | 2:33.18 | 202387 | 213879 19 | 47:31.55 | 3:59.63 | 213880 | 231867 20 | 51:31.43 | 3:18.59 | 231868 | 246776 21 | 54:50.27 | 1:51.42 | 246777 | 255143 22 | 56:41.69 | 3:26.01 | 255144 | 270594

Range status and errors

Selected range

Filename C:\EAC\Herb Alpert & The Tijuana Brass - (2005) Lost Treasures [Shout! Factory Remaster]\Herb Alpert & The Tijuana Brass - Lost Treasures [Shout! Factory Remaster].wav

Peak level 100.0 % Extraction speed 6.1 X Range quality 100.0 % Test CRC 1E5D4DB5 Copy CRC 1E5D4DB5 Copy OK

No errors occurred

AccurateRip summary

Track 1 accurately ripped (confidence 7) [0ADB9024] (AR v2)Track 2 accurately ripped (confidence 7) [F8BFFB47] (AR v2)Track 3 accurately ripped (confidence 7) [C9D2F581] (AR v2)Track 4 accurately ripped (confidence 7) [1B68BE81] (AR v2)Track 5 accurately ripped (confidence 7) [92FAB6F8] (AR v2)Track 6 accurately ripped (confidence 7) [B24945D5] (AR v2)Track 7 accurately ripped (confidence 7) [1F384727] (AR v2)Track 8 accurately ripped (confidence 7) [E935B5E5] (AR v2)Track 9 accurately ripped (confidence 7) [4AFB15B7] (AR v2)Track 10 accurately ripped (confidence 7) [FCB7E4DB] (AR v2)Track 11 accurately ripped (confidence 7) [04BEDB97] (AR v2)Track 12 accurately ripped (confidence 7) [B583B609] (AR v2)Track 13 accurately ripped (confidence 7) [C5E3C32A] (AR v2)Track 14 accurately ripped (confidence 7) [9FB9B050] (AR v2)Track 15 accurately ripped (confidence 7) [BCB3BBBD] (AR v2)Track 16 accurately ripped (confidence 7) [B152E83E] (AR v2)Track 17 accurately ripped (confidence 7) [685CFE49] (AR v2)Track 18 accurately ripped (confidence 7) [9F26DF3A] (AR v2)Track 19 accurately ripped (confidence 7) [657B0740] (AR v2)Track 20 accurately ripped (confidence 7) [5138E6F5] (AR v2)Track 21 accurately ripped (confidence 7) [51ECCB04] (AR v2)Track 22 accurately ripped (confidence 7) [10846707] (AR v2)

All tracks accurately ripped

End of status report

==== Log checksum 232CCC3B21EF06C2CF3469835EE64A172F3BA5EEE80CAC83C4147DB64DBBAFC2 ====
REM GENRE "Easy Listening"REM DATE 2005REM DISCID 440E1716REM COMMENT "ExactAudioCopy v1.0b2"PERFORMER "Herb Alpert & The Tijuana Brass"TITLE "Lost Treasures"FILE "Herb Alpert & The Tijuana Brass - Lost Treasures.flac" WAVE TRACK 01 AUDIO TITLE "Up Cherry Street" PERFORMER "Herb Alpert & The Tijuana Brass" INDEX 01 00:00:00 TRACK 02 AUDIO TITLE "Lazy Day" PERFORMER "Herb Alpert & The Tijuana Brass" INDEX 00 02:34:27 INDEX 01 02:35:67 TRACK 03 AUDIO TITLE "Wailing Of The Willow" PERFORMER "Herb Alpert & The Tijuana Brass" INDEX 00 05:31:42 INDEX 01 05:32:42 TRACK 04 AUDIO TITLE "Fire And Rain" PERFORMER "Herb Alpert & The Tijuana Brass" INDEX 00 08:23:33 INDEX 01 08:24:73 TRACK 05 AUDIO TITLE "And I Love Her" PERFORMER "Herb Alpert & The Tijuana Brass" INDEX 00 11:08:35 INDEX 01 11:09:35 TRACK 06 AUDIO TITLE "I Can''t Go On Living, Baby, Without You" PERFORMER "Herb Alpert & The Tijuana Brass" INDEX 00 13:55:15 INDEX 01 13:57:11 TRACK 07 AUDIO TITLE "(They Long To Be) Close To You" PERFORMER "Herb Alpert & The Tijuana Brass" INDEX 00 16:33:59 INDEX 01 16:35:34 TRACK 08 AUDIO TITLE "Promises, Promises" PERFORMER "Herb Alpert & The Tijuana Brass" INDEX 00 18:56:33 INDEX 01 18:57:53 TRACK 09 AUDIO TITLE "Happy Hour" PERFORMER "Herb Alpert & The Tijuana Brass" INDEX 00 21:30:17 INDEX 01 21:31:57 TRACK 10 AUDIO TITLE "Julius And Me" PERFORMER "Herb Alpert & The Tijuana Brass" INDEX 00 23:23:37 INDEX 01 23:24:37 TRACK 11 AUDIO TITLE "I Might Frighten Her Away" PERFORMER "Herb Alpert & The Tijuana Brass" INDEX 00 24:55:14 INDEX 01 24:57:34 TRACK 12 AUDIO TITLE "Alone Again (Naturally)" PERFORMER "Herb Alpert & The Tijuana Brass" INDEX 00 29:10:15 INDEX 01 29:12:00 TRACK 13 AUDIO TITLE "Tennessee Waltz" PERFORMER "Herb Alpert & The Tijuana Brass" INDEX 00 31:25:54 INDEX 01 31:26:54 TRACK 14 AUDIO TITLE "Tradewinds" PERFORMER "Herb Alpert & The Tijuana Brass" INDEX 00 33:58:43 INDEX 01 34:00:43 TRACK 15 AUDIO TITLE "Raindrops Keep Falling On My Head" PERFORMER "Herb Alpert & The Tijuana Brass" INDEX 00 37:02:58 INDEX 01 37:04:03 TRACK 16 AUDIO TITLE "Flowers On The Wall" PERFORMER "Herb Alpert & The Tijuana Brass" INDEX 00 39:04:71 INDEX 01 39:06:46 TRACK 17 AUDIO TITLE "Popcorn" PERFORMER "Herb Alpert & The Tijuana Brass" INDEX 00 41:12:31 INDEX 01 41:13:31 TRACK 18 AUDIO TITLE "Chris" PERFORMER "Herb Alpert & The Tijuana Brass" INDEX 00 44:56:72 INDEX 01 44:58:37 TRACK 19 AUDIO TITLE "Killing Me Softly" PERFORMER "Herb Alpert & The Tijuana Brass" INDEX 00 47:30:35 INDEX 01 47:31:55 TRACK 20 AUDIO TITLE "I''ll Never Fall In Love Again" PERFORMER "Herb Alpert & The Tijuana Brass" INDEX 00 51:30:23 INDEX 01 51:31:43 TRACK 21 AUDIO TITLE "Speakeasy" PERFORMER "Herb Alpert & The Tijuana Brass" INDEX 00 54:48:62 INDEX 01 54:50:27 TRACK 22 AUDIO TITLE "Whistlestar" PERFORMER "Herb Alpert & The Tijuana Brass" INDEX 00 56:40:09 INDEX 01 56:41:69
Early in 2005, Shout! Factory launched an extensive reissue campaign of Herb Alpert & the Tijuana Brass'' ''60s catalog. In the first wave of reissues, Alpert''s classic 1962 debut, The Lonely Bull, and his third album, 1964''s South of the Border, were given upgrades and they were joined by a new compilation of rarities called Lost Treasures. Compiled in large part by Alpert himself, Lost Treasures features a generous selection of 22 tracks, recorded somewhere between 1962 and 1972. It''s difficult to discern the exact dates since the otherwise excellent liner notes by Josh Kun (with an introduction by Alpert) do not mention when any of the individual songs were recorded or if they''ve appeared on other albums (Alpert alludes to the fact that some of the cuts here were album tracks on otherwise "unsuccessful" LPs from the early ''70s), nor do they mention recording personnel. This is a bit infuriating for any fan or collector who wants to place the cuts in historical context, but as a listening experience, Lost Treasures is as pleasurable as any of the best Tijuana Brass albums. Part of this is that Alpert has cherry-picked the best of the leftover sessions -- and he admits that he did re-record some trumpet parts in order to complete the tracks, but these overdubs are not really noticeable -- and he''s carefully selected and sequenced these tunes so they flow like a real album. But the main reason that Lost Treasures is so enjoyable is that the songs are strong and the performances are nicely laid-back and breezy. Apart from a limber, rather funky reading of James Taylor''s "Fire and Rain" and a silky take on the electro-novelty "Popcorn," this is pretty much the signature Tijuana Brass sound served straight up with no frills but a lot of breezy good vibes. But this is a time when no surprises is actually a good thing, since the compilation delivers what Alpert fans want most of all -- more high-quality tunes from his commercial and creative peak.
Reviewed by Stephen Thomas Erlewine allmusic.com


Трекер:  [ 19-Янв-2014 17:24 ]

  

Скачать .torrent

Размер .torrent файла 58 KB


Размер: 6.54 GB
Хэш (hash) релиза: e2a975d222774a67ae7a32648b5f8f78998ee539

Еще никто не оставлял запись к записи скачать торрент . Будь первым!

!Обратная связь