Скачать через торрент музыку бесплатно без регистрации torrent

Если у вас наблюдаются проблемы со скриншотами, переходом по ссылками, скачиванием торрентов - проблемы в блокировщике рекламы AdBlock. #хорошегоДня!


Статистика раздачи
Размер:  262 MB   |    Зарегистрирован:  3 года 10 месяцев   |    .torrent скачан:  164 раза   |   
Раздают:  1  
   
Загрузка...
 
Автор Сообщение

Galfimbul

avatar Galfimbul


Kenny Dorham - Quiet Kenny

Жанр: Hard Bop
Носитель: CD
Страна-производитель диска: США
Год издания: 2001
Издатель (лейбл): Prestige (20-Bit K2 Super Coding)
Номер по каталогу: PRCD-8225-2
Аудиокодек: FLAC (*.flac)
Тип рипа: tracks+.cue
Битрейт аудио: lossless
Продолжительность: 42:08
Источник (релизер): barryegan (what)
Наличие сканов в содержимом раздачи: нет

Треклист:
01. Lotus Blossom (Dorham) - 4:38
02. My Ideal (Robbin-Chase-Whiting) - 5:06
03. Blue Friday (Dorham) - 8:44
04. Alone Together (Schwartz-Dietz) - 3:11
05. Blue Spring Shuffle (Dorham) - 7:36
06. I Had the Craziest Dream (Warren-Gordon) - 4:39
07. Old Folks (Hill-Robinson) - 5:12
08. Mack the Knife (Weill-Brecht) - 3:02

Состав:
Kenny Dorham - trumpet
Tommy Flanagan - piano
Paul Chambers - bass
Art Taylor - drums

Recorded at the Van Gelder Studio, Englewood Cliffs, NJ on November 13, 1959.
Mastering Engineer - Shigeo Miyamoto under supervision of Tamaki Beck for JVC Studios.
X Lossless Decoder version 20100911 (122.0)

XLD extraction logfile from 2010-09-17 21:24:44 -0500

Kenny Dorham / Quiet Kenny

Used drive : HL-DT-ST DVDRW GSA-S10N (revision BP10)

Use cdparanoia mode : YES (CDParanoia III 10.2 engine)Disable audio cache : OK for the drive with cache less than 2750KBMake use of C2 pointers : NORead offset correction : 667Max retry count : 100Gap status : Analyzed, Appended

TOC of the extracted CD Track | Start | Length | Start sector | End sector --------------------------------------------------------- 1 | 00:00:00 | 04:38:37 | 0 | 20886 2 | 04:38:37 | 05:05:38 | 20887 | 43799 3 | 09:44:00 | 08:44:37 | 43800 | 83136 4 | 18:28:37 | 03:11:00 | 83137 | 97461 5 | 21:39:37 | 07:36:00 | 97462 | 131661 6 | 29:15:37 | 04:38:38 | 131662 | 152549 7 | 33:54:00 | 05:12:37 | 152550 | 175986 8 | 39:06:37 | 03:01:55 | 175987 | 189616

All Tracks Album gain : -3.33 dB Peak : 0.939972

Track 01 Filename : 01 Lotus Blossom.flac Pre-gap length : 00:02:00

Track gain : -4.50 dB Peak : 0.939972 CRC32 hash (test run) : 4776DFBE CRC32 hash : 4776DFBE CRC32 hash (skip zero) : 0D48A0C8 AccurateRip signature : D38D1AD0 ->Accurately ripped! (confidence 8) Statistics Read error : 0 Skipped (treated as error) : 0 Edge jitter error (maybe fixed) : 0 Atom jitter error (maybe fixed) : 0 Drift error (maybe fixed) : 0 Dropped bytes error (maybe fixed) : 0 Duplicated bytes error (maybe fixed) : 0 Inconsistency in error sectors : 0

Track 02 Filename : 02 My Ideal.flac Pre-gap length : 00:02:65

Track gain : -3.60 dB Peak : 0.939758 CRC32 hash (test run) : AB67D172 CRC32 hash : AB67D172 CRC32 hash (skip zero) : 7E21E8FC AccurateRip signature : 71E835A8 ->Accurately ripped! (confidence 8) Statistics Read error : 0 Skipped (treated as error) : 0 Edge jitter error (maybe fixed) : 0 Atom jitter error (maybe fixed) : 0 Drift error (maybe fixed) : 0 Dropped bytes error (maybe fixed) : 0 Duplicated bytes error (maybe fixed) : 0 Inconsistency in error sectors : 0

Track 03 Filename : 03 Blue Friday.flac Pre-gap length : 00:02:65

Track gain : -4.27 dB Peak : 0.939941 CRC32 hash (test run) : 82C2BD64 CRC32 hash : 82C2BD64 CRC32 hash (skip zero) : 016146C3 AccurateRip signature : 573E00BD ->Accurately ripped! (confidence 8) Statistics Read error : 0 Skipped (treated as error) : 0 Edge jitter error (maybe fixed) : 0 Atom jitter error (maybe fixed) : 0 Drift error (maybe fixed) : 0 Dropped bytes error (maybe fixed) : 0 Duplicated bytes error (maybe fixed) : 0 Inconsistency in error sectors : 0

Track 04 Filename : 04 Alone Together.flac Pre-gap length : 00:02:45

Track gain : -1.11 dB Peak : 0.939819 CRC32 hash (test run) : FAE6698E CRC32 hash : FAE6698E CRC32 hash (skip zero) : B3818AA5 AccurateRip signature : B1D6959D ->Accurately ripped! (confidence 8) Statistics Read error : 0 Skipped (treated as error) : 0 Edge jitter error (maybe fixed) : 0 Atom jitter error (maybe fixed) : 0 Drift error (maybe fixed) : 0 Dropped bytes error (maybe fixed) : 0 Duplicated bytes error (maybe fixed) : 0 Inconsistency in error sectors : 0

Track 05 Filename : 05 Blue Spring Shuffle.flac Pre-gap length : 00:02:32

Track gain : -2.79 dB Peak : 0.939972 CRC32 hash (test run) : E9B43B11 CRC32 hash : E9B43B11 CRC32 hash (skip zero) : 419412DA AccurateRip signature : 08C15C90 ->Accurately ripped! (confidence 8) Statistics Read error : 0 Skipped (treated as error) : 0 Edge jitter error (maybe fixed) : 0 Atom jitter error (maybe fixed) : 0 Drift error (maybe fixed) : 0 Dropped bytes error (maybe fixed) : 0 Duplicated bytes error (maybe fixed) : 0 Inconsistency in error sectors : 0

Track 06 Filename : 06 I Had The Craziest Dream.flac Pre-gap length : 00:02:55

Track gain : -1.09 dB Peak : 0.939758 CRC32 hash (test run) : A8930EB3 CRC32 hash : A8930EB3 CRC32 hash (skip zero) : DAC1F721 AccurateRip signature : 6CD4F6A6 ->Accurately ripped! (confidence 8) Statistics Read error : 0 Skipped (treated as error) : 0 Edge jitter error (maybe fixed) : 0 Atom jitter error (maybe fixed) : 0 Drift error (maybe fixed) : 0 Dropped bytes error (maybe fixed) : 0 Duplicated bytes error (maybe fixed) : 0 Inconsistency in error sectors : 0

Track 07 Filename : 07 Old Folks.flac Pre-gap length : 00:02:48

Track gain : 1.06 dB Peak : 0.873688 CRC32 hash (test run) : A9309D5A CRC32 hash : A9309D5A CRC32 hash (skip zero) : A391CC30 AccurateRip signature : D4225FF5 ->Accurately ripped! (confidence 8) Statistics Read error : 0 Skipped (treated as error) : 0 Edge jitter error (maybe fixed) : 0 Atom jitter error (maybe fixed) : 0 Drift error (maybe fixed) : 0 Dropped bytes error (maybe fixed) : 0 Duplicated bytes error (maybe fixed) : 0 Inconsistency in error sectors : 0

Track 08 Filename : 08 Mack The Knife.flac Pre-gap length : 00:02:32

Track gain : -3.55 dB Peak : 0.939972 CRC32 hash (test run) : DA374CA6 CRC32 hash : DA374CA6 CRC32 hash (skip zero) : 86E13BA5 AccurateRip signature : D6EB9FAE ->Accurately ripped! (confidence 8) Statistics Read error : 0 Skipped (treated as error) : 0 Edge jitter error (maybe fixed) : 0 Atom jitter error (maybe fixed) : 0 Drift error (maybe fixed) : 0 Dropped bytes error (maybe fixed) : 0 Duplicated bytes error (maybe fixed) : 0 Inconsistency in error sectors : 0

No errors occurred

End of status report
TITLE "Quiet Kenny"PERFORMER "Kenny Dorham"REM GENRE "Jazz"REM DATE 1959REM DISCID 5709E008FILE "01 - Lotus Blossom.wav" WAVE TRACK 01 AUDIO TITLE "Lotus Blossom" PERFORMER "Kenny Dorham" INDEX 01 00:00:00 TRACK 02 AUDIO TITLE "My Ideal" PERFORMER "Kenny Dorham" INDEX 00 04:35:47FILE "02 - My Ideal.wav" WAVE INDEX 01 00:00:00 TRACK 03 AUDIO TITLE "Blue Friday" PERFORMER "Kenny Dorham" INDEX 00 05:02:48FILE "03 - Blue Friday.wav" WAVE INDEX 01 00:00:00 TRACK 04 AUDIO TITLE "Alone Together" PERFORMER "Kenny Dorham" INDEX 00 08:41:67FILE "04 - Alone Together.wav" WAVE INDEX 01 00:00:00 TRACK 05 AUDIO TITLE "Blue Spring Shuffle" PERFORMER "Kenny Dorham" INDEX 00 03:08:43FILE "05 - Blue Spring Shuffle.wav" WAVE INDEX 01 00:00:00 TRACK 06 AUDIO TITLE "I Had the Craziest Dream" PERFORMER "Kenny Dorham" INDEX 00 07:33:20FILE "06 - I Had the Craziest Dream.wav" WAVE INDEX 01 00:00:00 TRACK 07 AUDIO TITLE "Old Folks" PERFORMER "Kenny Dorham" INDEX 00 04:35:65FILE "07 - Old Folks.wav" WAVE INDEX 01 00:00:00 TRACK 08 AUDIO TITLE "Mack the Knife" PERFORMER "Kenny Dorham" INDEX 00 05:10:05FILE "08 - Mack the Knife.wav" WAVE INDEX 01 00:00:00
[CUETools log; Date: 19.01.2014 17:07:21; Version: 2.1.4][CTDB TOCID: cyx1Ss2vDhKrrqiMVk3gSiDkDfs-] found.Track | CTDB Status 1 | (2/2) Accurately ripped 2 | (2/2) Accurately ripped 3 | (2/2) Accurately ripped 4 | (2/2) Accurately ripped 5 | (2/2) Accurately ripped 6 | (2/2) Accurately ripped 7 | (2/2) Accurately ripped 8 | (2/2) Accurately ripped[AccurateRip ID: 000da87e-005b05f8-5709e008] found.Track [ CRC | V2 ] Status 01 [d38d1ad0|cd2f7805] (13+04/17) Accurately ripped 02 [71e835a8|ae112683] (13+04/17) Accurately ripped 03 [573e00bd|540130d4] (13+04/17) Accurately ripped 04 [b1d6959d|fb7c63f8] (13+04/17) Accurately ripped 05 [08c15c90|1d0d5dba] (13+04/17) Accurately ripped 06 [6cd4f6a6|97d6ce91] (13+04/17) Accurately ripped 07 [d4225ff5|96591dc5] (13+04/17) Accurately ripped 08 [d6eb9fae|1388020f] (13+04/17) Accurately ripped

Track Peak [ CRC32 ] [W/O NULL] -- 94,0 [63BBE52D] [77DE4F3C] 01 94,0 [4776DFBE] [0D48A0C8] 02 93,9 [AB67D172] [7E21E8FC] 03 93,9 [82C2BD64] [016146C3] 04 93,9 [FAE6698E] [B3818AA5] 05 94,0 [E9B43B11] [419412DA] 06 93,9 [A8930EB3] [DAC1F721] 07 87,3 [A9309D5A] [A391CC30] 08 94,0 [DA374CA6] [86E13BA5]
In the liner notes of Quiet Kenny, former Downbeat magazine publisher Jack Maher states that trumpeter Kenny Dorham''s music is not necessarily the demure, balladic, rapturous jazz one might associate as romantic or tranquil. Cool and understated might be better watchwords for what the ultra-melodic Dorham achieves on this undeniably well crafted set of standards and originals that is close to containing his best work overall during a far too brief career. Surrounded by an excellent rhythm team of the equally sensitive pianist Tommy Flanagan, emerging bassist Paul Chambers, and the always-beneficial drummer Art Taylor, Dorham and his mates are not prone to missteps or overt exaggerations. One of Dorham''s all-time best tunes "Lotus Blossom" kicks off the set with its bop to Latin hummable melody, fluid dynamics, and Dorham''s immaculate, unpretentious tone. "Old Folks," a classic ballad, is done mid-tempo, while the true "quiet" factor comes into play on interesting version of "My Ideal" where Dorham gingerly squeezes out the slippery wet notes, and on the sad ballad "Alone Together." The rest of the material is done in easygoing, unforced fashion, especially the originals "Blue Friday" and the simple swinger "Blue Spring Shuffle" which is not really a shuffle. Never known as a boisterous or brash player, but also not a troubadour of romanticism -- until he started singing -- Dorham''s music is also far from complacent, and this recording established him as a Top Five performer in jazz on his instrument. It comes recommended to all.


Трекер:  [ 19-Янв-2014 16:23 ]

  

Скачать .torrent

Размер .torrent файла 11 KB


Размер: 262 MB
Хэш (hash) релиза: 81673aaa8c797c68618172c097066ed0bd49583e

Еще никто не оставлял запись к записи скачать торрент . Будь первым!

!Обратная связь