Скачать через торрент музыку Steve Kindler - Across A Rainbow Sea - 1990, FLAC бесплатно без регистрации torrent

Статистика раздачи
Размер:  256 MB   |    Зарегистрирован:  3 года 4 месяца   |    .torrent скачан:  282 раза   |   
Раздают:  2  
   
 
Автор Сообщение

Galfimbul

avatar Galfimbul


Steve Kindler - Across A Rainbow Sea

Жанр: New Age, Relax
Год издания: 1990
Издатель (лейбл): Global Pacific
Аудиокодек: FLAC (*.flac)
Тип рипа: tracks+.cue
Битрейт аудио: lossless
Продолжительность: 00:47:00
Источник (релизер): internet
Наличие сканов в содержимом раздачи: да
Треклист:
01 For the Americas
02 Plumeria
03 Agua Caliente
04 Caught Up in the Rapture
05 Wistari Reef
06 Little Fuji
07 Mystic Fire
08 Bodysurfer
09 Across a Rainbow Sea
Exact Audio Copy V1.0 beta 1 from 15. November 2010

Archivo Log de extracciones desde 22. Mayo 2012, 19:45

Steve Kindler / Across A Rainbow Sea

Usar unidad : TSSTcorpCDDVDW SH-S223C Adapter: 0 ID: 1

Modo de Lectura : : SeguroUtilizar corriente precisa : SíCaché de audio por defecto : SíUtilizar los punteros C2 : No

Corrección de Desplazamiento de Lectura : : 697Sobreleer tanto en Lead-In como en Lead-Out : NoRellenar las muestras faltantes con silencios : SíEliminar silencios inicial y final : NoMuestras nulas usadas en los calculos de CRC : SíInterfaz usada : Interfaz propio de Win32 para Windowns NT y 2000Manejo de huecos : Anexada a la pista anterior

Formato de Salida utilizado : : Compresor definido por el UsuarioVelocidad de bits seleccionada : 768 kBit/sCalidad : AltaAñadir ID3 tag : Nolinea de comandos del compresor : C:\Program Files (x86)\Exact Audio Copy\Flac\flac.exeOpciones adicionales en línea de comandos : : -8 -V -T "artist=%a" -T "title=%t" -T "album=%g" -T "date=%y" -T "tracknumber=%n" -T "genre=%m" %s

TOC extraídos del CD

Pista | Inicio | Longitud | Inicio del sector | Fin del sector ------------------------------------------------------------------ 1 | 0:00.00 | 4:58.50 | 0 | 22399 2 | 4:58.50 | 4:32.37 | 22400 | 42836 3 | 9:31.12 | 4:44.45 | 42837 | 64181 4 | 14:15.57 | 4:37.05 | 64182 | 84961 5 | 18:52.62 | 5:42.23 | 84962 | 110634 6 | 24:35.10 | 5:00.00 | 110635 | 133134 7 | 29:35.10 | 5:25.72 | 133135 | 157581 8 | 35:01.07 | 4:41.18 | 157582 | 178674 9 | 39:42.25 | 8:04.00 | 178675 | 214974

Pista 1

Nombre de Archivo C:\Users\Anton\Music\ORIGINALES\Steve Kindler - 01 - For The Americas.wav

Longitud Pre-gap 0:00:02.00

Nivel Pico 65.2 % Velocidad de extracción 2.1 X Calidad de Pista 100.0 % Copiar CRC 0BFC1262 Copia OK

Pista 2

Nombre de Archivo C:\Users\Anton\Music\ORIGINALES\Steve Kindler - 02 - Plumeria.wav

Longitud Pre-gap 0:00:01.15

Nivel Pico 51.2 % Velocidad de extracción 2.3 X Calidad de Pista 100.0 % Copiar CRC 6EE0B929 Copia OK

Pista 3

Nombre de Archivo C:\Users\Anton\Music\ORIGINALES\Steve Kindler - 03 - Agua Caliente.wav

Longitud Pre-gap 0:00:01.02

Nivel Pico 64.7 % Velocidad de extracción 2.2 X Calidad de Pista 99.9 % Copiar CRC 6F7D558F Copia OK

Pista 4

Nombre de Archivo C:\Users\Anton\Music\ORIGINALES\Steve Kindler - 04 - Caught Up In The Rapture.wav

Longitud Pre-gap 0:00:01.67

Nivel Pico 65.3 % Velocidad de extracción 2.7 X Calidad de Pista 100.0 % Copiar CRC 4F2D4506 Copia OK

Pista 5

Nombre de Archivo C:\Users\Anton\Music\ORIGINALES\Steve Kindler - 05 - Wistari Reef.wav

Nivel Pico 48.9 % Velocidad de extracción 3.0 X Calidad de Pista 100.0 % Copiar CRC 1C764CF1 Copia OK

Pista 6

Nombre de Archivo C:\Users\Anton\Music\ORIGINALES\Steve Kindler - 06 - Little Fuji.wav

Longitud Pre-gap 0:00:00.48

Nivel Pico 97.9 % Velocidad de extracción 3.2 X Calidad de Pista 100.0 % Copiar CRC 042B5E76 Copia OK

Pista 7

Nombre de Archivo C:\Users\Anton\Music\ORIGINALES\Steve Kindler - 07 - Mystic Fire.wav

Longitud Pre-gap 0:00:02.30

Nivel Pico 56.4 % Velocidad de extracción 3.4 X Calidad de Pista 100.0 % Copiar CRC C3FD89ED Copia OK

Pista 8

Nombre de Archivo C:\Users\Anton\Music\ORIGINALES\Steve Kindler - 08 - Bodysurfer.wav

Nivel Pico 56.6 % Velocidad de extracción 2.8 X Calidad de Pista 99.9 % Copiar CRC 77C5FDDD Copia OK

Pista 9

Nombre de Archivo C:\Users\Anton\Music\ORIGINALES\Steve Kindler - 09 - Across A Rainbow Sea.wav

Longitud Pre-gap 0:00:02.10

Nivel Pico 50.5 % Velocidad de extracción 3.7 X Calidad de Pista 100.0 % Copiar CRC 6AB42FEC Copia OK

Sin Errores

Final del Informe

==== Log checksum 69BF15373D336F43CBB9CC2C1CA8F36E57669C737D6134B7B64853296D25DC05 ====
REM GENRE "New Age"REM DATE 1990REM DISCID 710B3209REM COMMENT "ExactAudioCopy v1.0b1"PERFORMER "Steve Kindler"TITLE "Across A Rainbow Sea"FILE "Steve Kindler - 01 - For The Americas.wav" WAVE TRACK 01 AUDIO TITLE "For The Americas" PERFORMER "Steve Kindler" INDEX 01 00:00:00 TRACK 02 AUDIO TITLE "Plumeria" PERFORMER "Steve Kindler" INDEX 00 04:57:35FILE "Steve Kindler - 02 - Plumeria.wav" WAVE INDEX 01 00:00:00 TRACK 03 AUDIO TITLE "Agua Caliente" PERFORMER "Steve Kindler" INDEX 00 04:31:35FILE "Steve Kindler - 03 - Agua Caliente.wav" WAVE INDEX 01 00:00:00 TRACK 04 AUDIO TITLE "Caught Up In The Rapture" PERFORMER "Steve Kindler" INDEX 00 04:42:53FILE "Steve Kindler - 04 - Caught Up In The Rapture.wav" WAVE INDEX 01 00:00:00FILE "Steve Kindler - 05 - Wistari Reef.wav" WAVE TRACK 05 AUDIO TITLE "Wistari Reef" PERFORMER "Steve Kindler" INDEX 01 00:00:00 TRACK 06 AUDIO TITLE "Little Fuji" PERFORMER "Steve Kindler" INDEX 00 05:41:50FILE "Steve Kindler - 06 - Little Fuji.wav" WAVE INDEX 01 00:00:00 TRACK 07 AUDIO TITLE "Mystic Fire" PERFORMER "Steve Kindler" INDEX 00 04:57:45FILE "Steve Kindler - 07 - Mystic Fire.wav" WAVE INDEX 01 00:00:00FILE "Steve Kindler - 08 - Bodysurfer.wav" WAVE TRACK 08 AUDIO TITLE "Bodysurfer" PERFORMER "Steve Kindler" INDEX 01 00:00:00 TRACK 09 AUDIO TITLE "Across A Rainbow Sea" PERFORMER "Steve Kindler" INDEX 00 04:39:08FILE "Steve Kindler - 09 - Across A Rainbow Sea.wav" WAVE INDEX 01 00:00:00


Трекер:  [ 19-Янв-2014 15:18 ]

  

Скачать .torrent

Размер .torrent файла 21 KB


Размер: 256 MB
Хэш (hash) релиза: 3c3214f7bb8a4ef28cf26df817cc4ceb0468c7a1

Еще никто не оставлял запись к записи скачать торрент Steve Kindler - Across A Rainbow Sea - 1990, FLAC . Будь первым!

!Обратная связь