Скачать через торрент музыку бесплатно без регистрации torrent

Если у вас наблюдаются проблемы со скриншотами, переходом по ссылками, скачиванием торрентов - проблемы в блокировщике рекламы AdBlock. #хорошегоДня!


Статистика раздачи
Размер:  129 MB   |    Зарегистрирован:  3 года 10 месяцев   |    .torrent скачан:  109 раз   |   
Раздают:  1  
   
Загрузка...
 
Автор Сообщение

Galfimbul

avatar Galfimbul


Divine - Native Love (Step By Step)

Жанр: Hi-NRG/Disco
Носитель: CDM
Страна-производитель диска: Canada
Год издания: 1993
Издатель (лейбл): Unidisc
Номер по каталогу: SP5-1283
Аудиокодек: FLAC (*.flac)
Тип рипа: tracks+.cue
Битрейт аудио: lossless
Продолжительность: 00:18:46
Источник (релизер): online friend (nemtudomvazze)
Наличие сканов в содержимом раздачи: нет
Треклист:
1. Divine - Native Love (Step By Step) (8:25)
2. Divine - Native Love (Step By Step) (Remix) (5:15)
3. Divine - Native Love (Step By Step) (5:06)
Exact Audio Copy V1.0 beta 3 from 29. August 2011

EAC extraction logfile from 23. November 2013, 1:08

Divine / Native Love (Step by Step) (Single)

Used drive : TSSTcorpCDDVDW SU-208DB Adapter: 0 ID: 0

Read mode : SecureUtilize accurate stream : YesDefeat audio cache : NoMake use of C2 pointers : No

Read offset correction : 48Overread into Lead-In and Lead-Out : NoFill up missing offset samples with silence : YesDelete leading and trailing silent blocks : NoNull samples used in CRC calculations : YesUsed interface : Native Win32 interface for Win NT & 2000Gap handling : Appended to previous track

Used output format : User Defined EncoderSelected bitrate : 768 kBit/sQuality : HighAdd ID3 tag : NoCommand line compressor : C:\Program Files (x86)\Exact Audio Copy\FLAC\FLAC.EXEAdditional command line options : -6 -V -T "ARTIST=%artist%" -T "TITLE=%title%" -T "ALBUM=%albumtitle%" -T "DATE=%year%" -T "TRACKNUMBER=%tracknr%" -T "GENRE=%genre%" -T "COMMENT=%comment%" -T "BAND=%albuminterpret%" -T "ALBUMARTIST=%albuminterpret%" -T "COMPOSER=%composer%" %haslyrics%--tag-from-file=LYRICS="%lyricsfile%"%haslyrics% -T "DISCNUMBER=%cdnumber%" -T "TOTALDISCS=%totalcds%" -T "TOTALTRACKS=%numtracks%" %hascover%--picture="%coverfile%"%hascover% %source% -o %dest%

TOC of the extracted CD

Track | Start | Length | Start sector | End sector --------------------------------------------------------- 1 | 0:00.00 | 8:25.35 | 0 | 37909 2 | 8:25.35 | 5:15.47 | 37910 | 61581 3 | 13:41.07 | 5:06.48 | 61582 | 84579

Track 1

Filename C:\Users\James\Desktop\FLACS\Divine\Native Love (Step by Step) (Single)\Divine - Native Love (Step by Step) (Single) - 01 - Native Love (Step By Step).wav

Pre-gap length 0:00:02.00

Peak level 95.2 % Extraction speed 5.3 X Track quality 100.0 % Test CRC 9D720C49 Copy CRC 9D720C49 Accurately ripped (confidence 1) [ED39E1A1] (AR v2) Copy OK

Track 2

Filename C:\Users\James\Desktop\FLACS\Divine\Native Love (Step by Step) (Single)\Divine - Native Love (Step by Step) (Single) - 02 - Native Love (Step By Step) (Remix).wav

Pre-gap length 0:00:01.60

Peak level 100.0 % Extraction speed 6.1 X Track quality 100.0 % Test CRC 0ACDFB83 Copy CRC 0ACDFB83 Accurately ripped (confidence 1) [023BB778] (AR v2) Copy OK

Track 3

Filename C:\Users\James\Desktop\FLACS\Divine\Native Love (Step by Step) (Single)\Divine - Native Love (Step by Step) (Single) - 03 - Native Love (Step By Step).wav

Pre-gap length 0:00:01.60

Peak level 95.7 % Extraction speed 6.7 X Track quality 100.0 % Test CRC 5EAAFCBD Copy CRC 5EAAFCBD Accurately ripped (confidence 1) [DFC2F73C] (AR v2) Copy OK

All tracks accurately ripped

No errors occurred

End of status report

---- CUETools DB Plugin V2.1.3

[CTDB TOCID: A99RCl0PgGKbQg68fxLY2N7mnSo-] disk not present in database, Submit result: A99RCl0PgGKbQg68fxLY2N7mnSo- has been uploaded
REM GENRE DiscoREM DATE 1993REM DISCID 1B046703REM COMMENT "ExactAudioCopy v1.0b3"PERFORMER "Divine"TITLE "Native Love (Step by Step) (Single)"FILE "Divine - Native Love (Step by Step) (Single) - 01 - Native Love (Step By Step).wav" WAVE TRACK 01 AUDIO TITLE "Native Love (Step By Step)" PERFORMER "Divine" INDEX 01 00:00:00 TRACK 02 AUDIO TITLE "Native Love (Step By Step) (Remix)" PERFORMER "Divine" INDEX 00 08:23:50FILE "Divine - Native Love (Step by Step) (Single) - 02 - Native Love (Step By Step) (Remix).wav" WAVE INDEX 01 00:00:00 TRACK 03 AUDIO TITLE "Native Love (Step By Step)" PERFORMER "Divine" INDEX 00 05:13:62FILE "Divine - Native Love (Step by Step) (Single) - 03 - Native Love (Step By Step).wav" WAVE INDEX 01 00:00:00


Трекер:  [ 19-Янв-2014 14:14 ]

  

Скачать .torrent

Размер .torrent файла 11 KB


Размер: 129 MB
Хэш (hash) релиза: 449d48af250bb0177d1e39338ed727d00d12990f

Еще никто не оставлял запись к записи скачать торрент . Будь первым!

!Обратная связь