Скачать порно через торрент Kakyuusei 2: Ki Hanashi Atsumari UnionPeer.org бесплатно онлайн HD качество

Скачать новое порно 2015, 2014 новинки через торрент UnionPeer.org

Порно торрент бесплатно ЮнионПир.орг

Если у вас наблюдаются проблемы со скриншотами, переходом по ссылками, скачиванием торрентов - проблемы в блокировщике рекламы AdBlock. #хорошегоДня!


Статистика раздачи
Размер:  4.46 GB   |    Зарегистрирован:  3 года 7 месяцев   |    .torrent скачан:  98 раз   |   
Раздают:  2  
   
Загрузка...
 
Автор Сообщение

Galfimbul

avatar Galfimbul


Kakyuusei 2: Ki Hanashi Atsumari [Anthology] / 下級生2 ~季花詞集 [Anthology]~ / Какюсэй 2 Антология

Год производства: 2006 г.
Жанр: Anal sex, Big tits, Bondage, Oral sex, Romance, School, Harem
Серии: ep. 1-2 of 2
Продолжительность: 2х~29 min + 6 min трейлеры
Цензура: Есть

Озвучка: Японская (Оригинальная)

Режиссер: Oogawara Haruo
Автор оригинала: Elf
Студия: Pink Pineapple

Описание RUS: Собственно очередная история про школьную любовь и про взросление молодежи, а если говорить конкретнее, то о первом сексуальном опыте. Главные герои с раннего детства знают друг друга, и чуть ли не с первого класса считались парой. Но вот пришло время и они решаются перевести их отношения на новый уровень, другими словами, заняться сексом. конечно первый раз у них получился не очень, как это бывает у большинства людей. И они решают, что не подходят друг к другу и ищут других половых партнеров. Но пройдя ни через одну постель. они понимают, что лучше не найдут и возвращаются к друг дружке, и второй секс в их жизни получается просто шикарным, ведь каждый из них набрался большого опыта в этом деле за время, которое они провели в разлуке....

Описание ENG: Childhood friends, Ryoma and Tamaki, are not just friends. Actually, they have sexual intercourse, but they're not lovers, either. One day, Tamaki gets angry with Ryoma and announces to break with him because he didn't take contraception measure while they were doing things.
However, because they belong to the same club, they have to meet. Seeing their cold attitudes, Yuri tries to make them friends again. However, she can't hide her love toward Ryoma, and confesses her love. Then, they make love, but...

Информационные ссылки: AniDB - MAL - World Art - ХентайМаг

Качество видео: 2x DVD5
Формат видео: DVD Video
Видео кодек: MPEG2
Аудио кодек: AC3
Видео: 720х480, (4:3), 29,970 кадров/сек, ~ 8200 Кбит/сек, NTSC
Аудио: JAP, AC-3, 2 канала, 192 Кбит/сек, 48,0 КГц
Общее
Полное имя : J:\VIDEO_TS\VTS_01_1.VOB
Формат : MPEG-PS
Размер файла : 1024 Мбайт
Продолжительность : 16 м.
Режим общего битрейта : Переменный
Общий поток : 8585 Кбит/сек

Видео
Идентификатор : 224 (0xE0)
Формат : MPEG Video
Версия формата : Version 2
Профиль формата : Main@Main
Параметр BVOP формата : Да
Параметр матрицы формата : Выборочная
Параметр GOP формата : Variable
Продолжительность : 16 м.
Вид битрейта : Переменный
Битрейт : 8223 Кбит/сек
Максимальный битрейт : 9800 Кбит/сек
Ширина : 720 пикселей
Высота : 480 пикселей
Соотношение сторон : 4:3
Частота кадров : 29,970 кадров/сек
Стандарт вещания : NTSC
Цветовое пространство : YUV
Субдискретизация насыщенности : 4:2:0
Битовая глубина : 8 бит
Тип развёртки : Чересстрочная
Порядок развёртки : Верхнее поле первое
Метод сжатия : С потерями
Бит/(Пиксели*Кадры) : 0.794
Временной код первого кадра : 01:00:16:00
Оригинал временного кода : Group of pictures header
Размер потока : 981 Мбайт (96%)

Аудио
Идентификатор : 189 (0xBD)-128 (0x80)
Формат : AC-3
Формат/Информация : Audio Coding 3
Расширение режима : CM (complete main)
Параметр Endianness формата : Big
Режим смешивания : DVD-Video
Продолжительность : 16 м.
Вид битрейта : Постоянный
Битрейт : 192 Кбит/сек
Каналы : 2 канала
Расположение каналов : Front: L R
Частота : 48,0 КГц
Битовая глубина : 16 бит
Метод сжатия : С потерями
Размер потока : 22,9 Мбайт (2%)

Меню


Трекер:  [ 18-Янв-2014 15:11 ]

  

Скачать .torrent

Размер .torrent файла 12 KB


Размер: 4.46 GB
Хэш (hash) релиза: 78950e26214dd15e2ce94d980c2c6f14b5c95b23

Еще никто не оставлял запись к записи скачать торрент Kakyuusei 2: Ki Hanashi Atsumari . Будь первым!

!Обратная связь