Скачать порно через торрент Okusama wa Michael? The Wife is Micael UnionPeer.org бесплатно онлайн HD качество

Скачать новое порно 2015, 2014 новинки через торрент UnionPeer.org

Порно торрент бесплатно ЮнионПир.орг

Если у вас наблюдаются проблемы со скриншотами, переходом по ссылками, скачиванием торрентов - проблемы в блокировщике рекламы AdBlock. #хорошегоДня!


Статистика раздачи
Размер:  2.69 GB   |    Зарегистрирован:  3 года 7 месяцев   |    .torrent скачан:  235 раз   |   
Раздают:  1  
   
Загрузка...
 
Автор Сообщение

Galfimbul

avatar Galfimbul


Okusama wa Michael? / The Wife is Micael / Oku-sama wa Micael? / おくさまは天使[ミカえる]? / Моя жена - ангел. Михаэль.

Год производства: 2012 г.
Жанр: Big tits, Group sex, Oral sex, Comedy, Mystic, Hospital, Rape, Futanari, Doctor
Серии: ep. 1
Продолжительность: 1х~25 min
Цензура: Есть

Озвучка: Японская (Оригинальная)

Режиссер: Yoshiten
Автор оригинала: Yoshiten
Студия: ChiChi No Ya, Schoolzone

Описание RUS: Хентай от режиссёра Bible Black и Star Jewel. Молодая жёнушка находит выброшенный кем-то фартук.
Ну и долго не думая забирает его домой (в хозяйстве всё пригодится), но и не подозревает, что это не просто фартук, а инопланетное существо выращенное в ходе эксперимента.

Описание ENG: Mika Amano, a newly married woman, discovers an alien who crashed on earth. This alien named Furuu can take the shape of any article of clothing. Her husband, Dr. Shinichi Amano, works at a small clinic and discovers an intresting side effect to a new experimental drug.

Информационные ссылки: AniDB - World Art

Качество видео: DVD5
Формат видео: DVD Video
Видео кодек: MPEG2
Аудио кодек: AC3
Видео: 720х480, (16:9), 29,970 кадров/сек, ~ 7356 Кбит/сек, NTSC
Аудио: JAP, AC-3, 2 канала, 192 Кбит/сек, 48,0 КГц
Доп. материалы: Фотогалерея, трейлеры
Общее
Полное имя : J:\VIDEO_TS\VTS_01_1.VOB
Формат : MPEG-PS
Размер файла : 1024 Мбайт
Продолжительность : 18 м.
Режим общего битрейта : Переменный
Общий поток : 7701 Кбит/сек

Видео
Идентификатор : 224 (0xE0)
Формат : MPEG Video
Версия формата : Version 2
Профиль формата : Main@Main
Параметр BVOP формата : Да
Параметр матрицы формата : Выборочная
Параметр GOP формата : M=3, N=15
Продолжительность : 18 м.
Вид битрейта : Переменный
Битрейт : 7356 Кбит/сек
Максимальный битрейт : 9000 Кбит/сек
Ширина : 720 пикселей
Высота : 480 пикселей
Соотношение сторон : 16:9
Частота кадров : 29,970 кадров/сек
Стандарт вещания : NTSC
Цветовое пространство : YUV
Субдискретизация насыщенности : 4:2:0
Битовая глубина : 8 бит
Тип развёртки : Чересстрочная
Порядок развёртки : Нижнее поле первое
Метод сжатия : С потерями
Бит/(Пиксели*Кадры) : 0.710
Временной код первого кадра : 01:00:00;00
Оригинал временного кода : Group of pictures header
Размер потока : 978 Мбайт (96%)
Основные цвета : BT.601 NTSC
Характеристики трансфера : BT.601
Коэффициенты матрицы : BT.601

Аудио
Идентификатор : 189 (0xBD)-128 (0x80)
Формат : AC-3
Формат/Информация : Audio Coding 3
Расширение режима : CM (complete main)
Параметр Endianness формата : Big
Режим смешивания : DVD-Video
Продолжительность : 18 м.
Вид битрейта : Постоянный
Битрейт : 192 Кбит/сек
Каналы : 2 канала
Расположение каналов : Front: L R
Частота : 48,0 КГц
Битовая глубина : 16 бит
Метод сжатия : С потерями
Размер потока : 25,5 Мбайт (2%)

Меню


Трекер:  [ 17-Янв-2014 12:33 ]

  

Скачать .torrent

Размер .torrent файла 14 KB


Размер: 2.69 GB
Хэш (hash) релиза: 3ab7512dc7e8d8f53c8e8e44092589e9a516ec37

Еще никто не оставлял запись к записи скачать торрент Okusama wa Michael? The Wife is Micael . Будь первым!

!Обратная связь