Скачать порно через торрент Orgy Anthology UnionPeer.org бесплатно онлайн HD качество

Скачать новое порно 2015, 2014 новинки через торрент UnionPeer.org

Порно торрент бесплатно ЮнионПир.орг

Если у вас наблюдаются проблемы со скриншотами, переходом по ссылками, скачиванием торрентов - проблемы в блокировщике рекламы AdBlock. #хорошегоДня!


Статистика раздачи
Размер:  1.87 GB   |    Зарегистрирован:  3 года 7 месяцев   |    .torrent скачан:  950 раз   |   
Раздают:  1  
   
Загрузка...
 
Автор Сообщение

Galfimbul

avatar Galfimbul


Orgy Anthology



Год производства: 2013 г.
Страна: FR
Жанр: Orgy,Anal,Oral,Double Penetration,Big tits,
Продолжительность: 3h 51mn
Режиссер: Manuel Ferrara, Luka, Hervé Bodilis, Max Candy, Michael Ninn
Студия: Marc Dorcel

В ролях: Aleska Diamond, Anissa Kate, Anksa Kara, Anna Polina, Black Angelika, Cindy Dollar, Claire Castel, Clanddi H Jinkcego, Coco, Defrancesca Gallardo, Gracie Glam, Jenna Lovely

Описание: Summary of the movie Orgy Anthology
You like orgies ? So do not hesitate one more second ! This best of MARC DORCEL was just made for you ! Come and discover the greatest orgy scenes from MARC DORCEL movies in this anthological feature ! 8 crazy group sex scenes shot by the best nowadays directors, 60 pornstars and more than 4 non-stop hours of hardcore sex !
Format : MPEG-4
Format profile : Base Media
Codec ID : isom
File size : 1.87 GiB
Duration : 3h 51mn
Overall bit rate : 1 155 Kbps
Encoded date : UTC 2013-12-02 20:39:24
Tagged date : UTC 2013-12-02 20:39:24

Video
ID : 2
Format : AVC
Format/Info : Advanced Video Codec
Format profile : Baseline@L3.0
Format settings, CABAC : No
Format settings, ReFrames : 1 frame
Muxing mode : Container profile=Baseline@4.1
Codec ID : avc1
Codec ID/Info : Advanced Video Coding
Duration : 3h 51mn
Bit rate mode : Variable
Bit rate : 1 022 Kbps
Width : 1 024 pixels
Height : 576 pixels
Display aspect ratio : 16:9
Frame rate mode : Constant
Frame rate : 25.000 fps
Color space : YUV
Chroma subsampling : 4:2:0
Bit depth : 8 bits
Scan type : Progressive
Bits/(Pixel*Frame) : 0.069
Stream size : 1.65 GiB (88%)
Writing library : и
Language : English

Audio
ID : 1
Format : AAC
Format/Info : Advanced Audio Codec
Format profile : LC
Codec ID : 40
Duration : 3h 51mn
Bit rate mode : Constant
Bit rate : 128 Kbps
Channel(s) : 2 channels
Channel positions : Front: L R
Sampling rate : 44.1 KHz
Compression mode : Lossy
Stream size : 212 MiB (11%)
Language : English


Трекер:  [ 14-Янв-2014 14:52 ]

  

Скачать .torrent

Размер .torrent файла 19 KB


Размер: 1.87 GB
Хэш (hash) релиза: c98620afbf8dbf17e4715666cffac035f4473414

Торренты, похожие на Orgy Anthology скачать торрент

Форум Название Автор Размер S L Добавлен
Гонзо-фильмы ·· Orgy Anthology / Антология оргий (Manuel Ferrara, Luka, Herve Bodilis, Max Candy, Michael Ninn, Marc Dorcel) [2013 г., All Sex, Anal, Blowjob, Big tits, Double Penetration, Lesbian, MILFs, Teens, 720p, HDRip] Galfimbul 72808170126.78 GB 0 0 1398501826

11:43

26-Апр-14

Еще никто не оставлял запись к записи скачать торрент Orgy Anthology . Будь первым!

!Обратная связь