Скачать через торрент музыку бесплатно без регистрации torrent

Если у вас наблюдаются проблемы со скриншотами, переходом по ссылками, скачиванием торрентов - проблемы в блокировщике рекламы AdBlock. #хорошегоДня!


Статистика раздачи
Размер:  182 MB   |    Зарегистрирован:  3 года 10 месяцев   |    .torrent скачан:  114 раз   |   
Раздают:  1  
   
Загрузка...
 
Автор Сообщение

Galfimbul

avatar Galfimbul


Native Vision ‎– Easy Life

Жанр: Eurodance
Носитель: CDM
Страна-производитель диска: Germany
Год издания: 28 Oct 1994
Издатель (лейбл): Paramount Park
Номер по каталогу: 900100.5
Страна: Germany
Аудиокодек: FLAC (*.flac)
Тип рипа: image+.cue
Битрейт аудио: lossless
Продолжительность: 00:23:00
Источник (релизер): Alexandr-1980
Наличие сканов в содержимом раздачи: да
Треклист:

1) Easy Life (Extended Mix) 5:41
2) Easy Life (MTV Mix) 3:46
3) Easy Life (Native Mix) 6:03
4) Easy Life (Alternative Mix) 7:12
Exact Audio Copy V1.0 beta 3 from 29. August 2011

Отчёт EAC об извлечении, выполненном 13. января 2014, 17:20

Native Vision / Easy Life

Дисковод: HL-DT-STDVDRAM GH24NSB0 Adapter: 2 ID: 0

Режим чтения : ДостоверностьИспользование точного потока : ДаОтключение кэша аудио : ДаИспользование указателей C2 : Нет

Коррекция смещения при чтении : 6Способность читать области Lead-in и Lead-out : НетЗаполнение пропущенных сэмплов тишиной : ДаУдаление блоков с тишиной в начале и конце : НетПри вычислениях CRC использовались нулевые сэмплы : ДаИнтерфейс : Встроенный Win32-интерфейс для Win NT/2000

Выходной формат : Пользовательский кодировщикВыбранный битрейт : 1024 kBit/sКачество : ВысокийДобавление ID3-тега : НетУтилита сжатия : C:\Program Files\Exact Audio Copy\Flac\flac.exeДополнительные параметры : -V -8 %source%

TOC извлечённого CD

Трек | Старт | Длительность | Начальный сектор | Конечный сектор --------------------------------------------------------------------- 1 | 0:00.00 | 5:44.12 | 0 | 25811 2 | 5:44.12 | 3:50.05 | 25812 | 43066 3 | 9:34.17 | 6:05.73 | 43067 | 70514 4 | 15:40.15 | 7:18.20 | 70515 | 103384

Характеристики диапазона извлечения и сообщения об ошибках

Выбранный диапазон

Имя файла E:\Temp\Native Vision - Easy Life.wav

Пиковый уровень 98.1 % Скорость извлечения 1.4 X Качество диапазона 99.9 % CRC теста 6DBF0F64 CRC копии 6DBF0F64 Копирование... OK

Ошибок не произошло

AccurateRip: сводка

Трек 1 : извлечено точно (доверие 2) [94F4DB88] (AR v2)Трек 2 : извлечено точно (доверие 2) [28165E4B] (AR v2)Трек 3 : извлечено точно (доверие 2) [E9A6283E] (AR v2)Трек 4 : извлечено точно (доверие 2) [B12144D9] (AR v2)

Все треки извлечены точно

Конец отчёта

---- CUETools DB Plugin V2.1.3

[CTDB TOCID: ExQXFdG37adaE7408JvxovQspBM-] found, Submit result: ExQXFdG37adaE7408JvxovQspBM- has been confirmed[e7696b84] (1/1) Accurately ripped

==== Контрольная сумма отчёта 4F922E4BDA219F9856709C7EDE59C94CE38E9D0EC18A928BB4BD898712C3B94E ====
REM GENRE EurodanceREM DATE 1994REM DISCID 30056204REM COMMENT "ExactAudioCopy v1.0b3"PERFORMER "Native Vision "TITLE "Easy Life"FILE "Native Vision - Easy Life.flac" WAVE TRACK 01 AUDIO TITLE "Easy Life (Extended Mix)" PERFORMER "Native Vision " INDEX 01 00:00:00 TRACK 02 AUDIO TITLE "Easy Life (MTV Mix)" PERFORMER "Native Vision " INDEX 00 05:41:32 INDEX 01 05:44:12 TRACK 03 AUDIO TITLE "Easy Life (Native Mix)" PERFORMER "Native Vision " INDEX 00 09:31:37 INDEX 01 09:34:17 TRACK 04 AUDIO TITLE "Easy Life (Alternative Mix)" PERFORMER "Native Vision " INDEX 00 15:37:35 INDEX 01 15:40:15
Доп. информация: Данный сингл был мною куплен на CD вот тут http://www.discogs.com/Native-Vision-Easy-Life/release/256912

Трекер:  [ 13-Янв-2014 20:37 ]

  

Скачать .torrent

Размер .torrent файла 29 KB


Размер: 182 MB
Хэш (hash) релиза: 0e0775dbd5c3ac4f3cf41b43e653440c9a47373c

Еще никто не оставлял запись к записи скачать торрент . Будь первым!

!Обратная связь