Скачать через торрент музыку бесплатно без регистрации torrent

Статистика раздачи
Размер:  796 MB   |    Зарегистрирован:  3 года 4 месяца   |    .torrent скачан:  184 раза   |   
Раздают:  1  
   
 
Автор Сообщение

Galfimbul

avatar Galfimbul


VA - The Bagpipes & Drums Of Scotland (2CD)

Жанр: Scotish Folk
Носитель: CD
Страна-производитель диска: Germany
Год издания: 1996
Издатель (лейбл): Delta Music GmbH
Номер по каталогу: 24335 (12870 & 12871)
Страна: Scotland
Аудиокодек: FLAC (*.flac)
Тип рипа: tracks+.cue
Битрейт аудио: lossless
Продолжительность: 0:59:39. + 0:59:42.
Источник (релизер): clustert (my CD)
Наличие сканов в содержимом раздачи: да
Треклист:
01. The Gordon Highlanders / Amazing Graze [0:02:46.70]
02. North Seas Gas / Ballad of St. Annes Reel [0:03:26.02]
03. North Seas Gas / Wark O'' The Weavers [0:02:31.15]
04. Culture Ceilidh Band / Auld Lang Syne [0:02:19.28]
05. Edinburgh City Police Pipe Band / Dunedeach - Going to Pitlochy - Rathven Market [0:03:52.42]
06. Boghall & Bathgate Caledonia Pipe Band / I Laid A Herrin'' In Salt - The Gees In The Bog - The Puir Wife''s Brae [0:03:14.58]
07. Boghall & Bathgate Caledonia Pipe Band / The Redundancy - Train Journey North [0:03:23.57]
08. Turriff and District Pipe Band / Up In The Morning - The Muckin'' O'' Geordie''s Byre - Cook O'' The North [0:02:55.50]
09. The Gordon Highlanders / Battle On The Tyne [0:01:14.53]
10. The Gordon Highlanders / Skye Boat Song - Barren Rocks Of Aden - Faery Dance - Bonnie Dundee - Skye Boat Song [0:04:58.47]
11. Jim Mac Leod / Gordon B. Cosh - The Thistle Centre - Monarch Of The Glen [0:02:30.53]
12. Ron Gonnella / Bonnie Dundee [0:03:23.67]
13. Addie Harper and the Wick Trio / The Drumfries Polka [0:02:46.28]
14. The Massed Bands of Scottish Division / Prince Charles Welcome To Lochaber [0:07:47.27]
15. Glasgow Police Pipe Band / The Grinder [0:04:55.58]
16. Massed Pipes & Drums / Kate Dalrymple - The Kilt Is My Delight [0:01:34.10]
17. Invergordon Distillery Pipe Band / Braes Of Badenoch - Bogan Lochan - The Sheepwife [0:04:45.57]
18. The Massed Bands of Scottish Division / The Soldier''s Return - Scotland The Brave [0:01:12.15]
Exact Audio Copy V1.0 beta 3 from 29. August 2011

Отчёт EAC об извлечении, выполненном 10. января 2014, 17:54

Various / The Bagpipes & Drums of Scotland

Дисковод: ASUS DRW-1814BLT Adapter: 4 ID: 0

Режим чтения : Достоверность
Использование точного потока : Да
Отключение кэша аудио : Да
Использование указателей C2 : Нет

Коррекция смещения при чтении : 6
Способность читать области Lead-in и Lead-out : Нет
Заполнение пропущенных сэмплов тишиной : Да
Удаление блоков с тишиной в начале и конце : Нет
При вычислениях CRC использовались нулевые сэмплы : Да
Интерфейс : Встроенный Win32-интерфейс для Win NT/2000
Обработка зазоров : Добавлено к предыдущему треку

Выходной формат : Пользовательский кодировщик
Выбранный битрейт : 128 kBit/s
Качество : Высокий
Добавление ID3-тега : Нет
Утилита сжатия : C:\Program Files\Exact Audio Copy\Flac\flac.exe
Дополнительные параметры : -V -8 -T "Genre=%genre%" -T "Artist=%artist%" -T "Title=%title%" -T "Album=%albumtitle%" -T "Date=%year%" -T "Tracknumber=%tracknr%" -T "Comment=EAC1.0b2 FLAC -8" %source%

TOC извлечённого CD

Трек | Старт | Длительность | Начальный сектор | Конечный сектор
---------------------------------------------------------------------
1 | 0:00.00 | 2:46.70 | 0 | 12519
2 | 2:46.70 | 3:26.02 | 12520 | 27971
3 | 6:12.72 | 2:31.15 | 27972 | 39311
4 | 8:44.12 | 2:19.28 | 39312 | 49764
5 | 11:03.40 | 3:52.42 | 49765 | 67206
6 | 14:56.07 | 3:14.58 | 67207 | 81814
7 | 18:10.65 | 3:23.57 | 81815 | 97096
8 | 21:34.47 | 2:55.50 | 97097 | 110271
9 | 24:30.22 | 1:14.53 | 110272 | 115874
10 | 25:45.00 | 4:58.47 | 115875 | 138271
11 | 30:43.47 | 2:30.53 | 138272 | 149574
12 | 33:14.25 | 3:23.67 | 149575 | 164866
13 | 36:38.17 | 2:46.28 | 164867 | 177344
14 | 39:24.45 | 7:47.27 | 177345 | 212396
15 | 47:11.72 | 4:55.58 | 212397 | 234579
16 | 52:07.55 | 1:34.10 | 234580 | 241639
17 | 53:41.65 | 4:45.57 | 241640 | 263071
18 | 58:27.47 | 1:12.15 | 263072 | 268486

Трек 1

Имя файла R:\Раздача 8\VA - The Bagpipes & Drums Of Scotland - 1996 (2CD)\CD 1\01 Amazing Graze.wav

Длина предзазора 0:00:02.00

Пиковый уровень 83.2 %
Скорость извлечения 4.8 X
Качество трека 100.0 %
CRC теста C991E5F8
CRC копии C991E5F8
Копирование... OK

Трек 2

Имя файла R:\Раздача 8\VA - The Bagpipes & Drums Of Scotland - 1996 (2CD)\CD 1\02 Ballad of St. Annes Reel.wav

Длина предзазора 0:00:02.40

Пиковый уровень 98.8 %
Скорость извлечения 5.5 X
Качество трека 100.0 %
CRC теста 9C8AE9CB
CRC копии 9C8AE9CB
Копирование... OK

Трек 3

Имя файла R:\Раздача 8\VA - The Bagpipes & Drums Of Scotland - 1996 (2CD)\CD 1\03 Wark O'' The Weavers.wav

Длина предзазора 0:00:03.00

Пиковый уровень 98.8 %
Скорость извлечения 5.5 X
Качество трека 100.0 %
CRC теста 59ABC74B
CRC копии 59ABC74B
Копирование... OK

Трек 4

Имя файла R:\Раздача 8\VA - The Bagpipes & Drums Of Scotland - 1996 (2CD)\CD 1\04 Auld Lang Syne.wav

Длина предзазора 0:00:02.60

Пиковый уровень 92.5 %
Скорость извлечения 5.7 X
Качество трека 100.0 %
CRC теста 653EFBFB
CRC копии 653EFBFB
Копирование... OK

Трек 5

Имя файла R:\Раздача 8\VA - The Bagpipes & Drums Of Scotland - 1996 (2CD)\CD 1\05 Dunedeach - Going to Pitlochy - Rathven Market.wav

Длина предзазора 0:00:02.73

Пиковый уровень 83.7 %
Скорость извлечения 6.6 X
Качество трека 100.0 %
CRC теста 51E1BFFD
CRC копии 51E1BFFD
Копирование... OK

Трек 6

Имя файла R:\Раздача 8\VA - The Bagpipes & Drums Of Scotland - 1996 (2CD)\CD 1\06 I Laid A Herrin'' In Salt - The Gees In The Bog - The Puir Wife''s Brae.wav

Длина предзазора 0:00:02.70

Пиковый уровень 98.8 %
Скорость извлечения 6.8 X
Качество трека 100.0 %
CRC теста AC159D71
CRC копии AC159D71
Копирование... OK

Трек 7

Имя файла R:\Раздача 8\VA - The Bagpipes & Drums Of Scotland - 1996 (2CD)\CD 1\07 The Redundancy - Train Journey North.wav

Длина предзазора 0:00:02.70

Пиковый уровень 98.8 %
Скорость извлечения 7.2 X
Качество трека 100.0 %
CRC теста 236752FE
CRC копии 236752FE
Копирование... OK

Трек 8

Имя файла R:\Раздача 8\VA - The Bagpipes & Drums Of Scotland - 1996 (2CD)\CD 1\08 Up In The Morning - The Muckin'' O'' Geordie''s Byre - Cook O'' The North.wav

Длина предзазора 0:00:02.62

Пиковый уровень 98.8 %
Скорость извлечения 7.3 X
Качество трека 100.0 %
CRC теста 61D1DD13
CRC копии 61D1DD13
Копирование... OK

Трек 9

Имя файла R:\Раздача 8\VA - The Bagpipes & Drums Of Scotland - 1996 (2CD)\CD 1\09 Battle On The Tyne.wav

Длина предзазора 0:00:03.00

Пиковый уровень 92.4 %
Скорость извлечения 4.4 X
Качество трека 99.8 %
CRC теста 124D36F0
CRC копии 124D36F0
Копирование... OK

Трек 10

Имя файла R:\Раздача 8\VA - The Bagpipes & Drums Of Scotland - 1996 (2CD)\CD 1\10 Skye Boat Song - Barren Rocks Of Aden - Faery Dance - Bonnie Dundee - Skye Boat Song.wav

Длина предзазора 0:00:02.63

Пиковый уровень 92.3 %
Скорость извлечения 8.4 X
Качество трека 100.0 %
CRC теста 1D02CD4C
CRC копии 1D02CD4C
Копирование... OK

Трек 11

Имя файла R:\Раздача 8\VA - The Bagpipes & Drums Of Scotland - 1996 (2CD)\CD 1\11 Gordon B. Cosh - The Thistle Centre - Monarch Of The Glen.wav

Длина предзазора 0:00:02.62

Пиковый уровень 98.8 %
Скорость извлечения 6.5 X
Качество трека 99.9 %
CRC теста E0DB1C73
CRC копии E0DB1C73
Копирование... OK

Трек 12

Имя файла R:\Раздача 8\VA - The Bagpipes & Drums Of Scotland - 1996 (2CD)\CD 1\12 Bonnie Dundee.wav

Длина предзазора 0:00:02.73

Пиковый уровень 93.9 %
Скорость извлечения 8.5 X
Качество трека 100.0 %
CRC теста 29288BE7
CRC копии 29288BE7
Копирование... OK

Трек 13

Имя файла R:\Раздача 8\VA - The Bagpipes & Drums Of Scotland - 1996 (2CD)\CD 1\13 The Drumfries Polka.wav

Длина предзазора 0:00:02.60

Пиковый уровень 98.8 %
Скорость извлечения 8.4 X
Качество трека 100.0 %
CRC теста 28F7E6A0
CRC копии 28F7E6A0
Копирование... OK

Трек 14

Имя файла R:\Раздача 8\VA - The Bagpipes & Drums Of Scotland - 1996 (2CD)\CD 1\14 Prince Charles Welcome To Lochaber.wav

Длина предзазора 0:00:02.68

Пиковый уровень 94.5 %
Скорость извлечения 10.0 X
Качество трека 100.0 %
CRC теста 3FC8E8DC
CRC копии 3FC8E8DC
Копирование... OK

Трек 15

Имя файла R:\Раздача 8\VA - The Bagpipes & Drums Of Scotland - 1996 (2CD)\CD 1\15 The Grinder.wav

Длина предзазора 0:00:02.70

Пиковый уровень 98.8 %
Скорость извлечения 9.0 X
Качество трека 99.9 %
CRC теста 6CA69A37
CRC копии 6CA69A37
Копирование... OK

Трек 16

Имя файла R:\Раздача 8\VA - The Bagpipes & Drums Of Scotland - 1996 (2CD)\CD 1\16 Kate Dalrymple - The Kilt Is My Delight.wav

Длина предзазора 0:00:02.60

Пиковый уровень 97.9 %
Скорость извлечения 8.1 X
Качество трека 100.0 %
CRC теста 1094B81D
CRC копии 1094B81D
Копирование... OK

Трек 17

Имя файла R:\Раздача 8\VA - The Bagpipes & Drums Of Scotland - 1996 (2CD)\CD 1\17 Braes Of Badenoch - Bogan Lochan - The Sheepwife.wav

Длина предзазора 0:00:02.63

Пиковый уровень 98.6 %
Скорость извлечения 10.4 X
Качество трека 100.0 %
CRC теста 4AAF402A
CRC копии 4AAF402A
Копирование... OK

Трек 18

Имя файла R:\Раздача 8\VA - The Bagpipes & Drums Of Scotland - 1996 (2CD)\CD 1\18 The Soldier''s Return - Scotland The Brave.wav

Длина предзазора 0:00:02.57

Пиковый уровень 98.8 %
Скорость извлечения 7.7 X
Качество трека 100.0 %
CRC теста 7EDF6873
CRC копии 7EDF6873
Копирование... OK

Ошибок не произошло

Конец отчёта

==== Контрольная сумма отчёта C07AECB1427264A38A9BE476B19D90972C82BBC873A1D19C5735A3B6A4E1835F ====
REM GENRE "Scotish Folk"
REM DATE 1996
REM DISCID 0E0DFB12
REM COMMENT "ExactAudioCopy v1.0b3"
CATALOG 0000000000000
PERFORMER "Various"
TITLE "The Bagpipes & Drums of Scotland"
FILE "01 Amazing Graze.wav" WAVE
TRACK 01 AUDIO
TITLE "Amazing Graze"
PERFORMER "The Gordon Highlanders"
INDEX 01 00:00:00
TRACK 02 AUDIO
TITLE "Ballad of St. Annes Reel "
PERFORMER "North Seas Gas"
INDEX 00 02:44:30
FILE "02 Ballad of St. Annes Reel.wav" WAVE
INDEX 01 00:00:00
TRACK 03 AUDIO
TITLE "Wark O'' The Weavers"
PERFORMER "North Seas Gas"
INDEX 00 03:23:02
FILE "03 Wark O'' The Weavers.wav" WAVE
INDEX 01 00:00:00
TRACK 04 AUDIO
TITLE "Auld Lang Syne"
PERFORMER "Culture Ceilidh Band"
INDEX 00 02:28:30
FILE "04 Auld Lang Syne.wav" WAVE
INDEX 01 00:00:00
TRACK 05 AUDIO
TITLE "Dunedeach - Going to Pitlochy - Rathven Market"
PERFORMER "Edinburgh City Police Pipe Band"
INDEX 00 02:16:30
FILE "05 Dunedeach - Going to Pitlochy - Rathven Market.wav" WAVE
INDEX 01 00:00:00
TRACK 06 AUDIO
TITLE "I Laid A Herrin'' In Salt - The Gees In The Bog - The Puir Wife''s Brae"
PERFORMER "Boghall & Bathgate Caledonia Pipe Band"
INDEX 00 03:49:47
FILE "06 I Laid A Herrin'' In Salt - The Gees In The Bog - The Puir Wife''s Brae.wav" WAVE
INDEX 01 00:00:00
TRACK 07 AUDIO
TITLE "The Redundancy - Train Journey North"
PERFORMER "Boghall & Bathgate Caledonia Pipe Band"
INDEX 00 03:11:63
FILE "07 The Redundancy - Train Journey North.wav" WAVE
INDEX 01 00:00:00
TRACK 08 AUDIO
TITLE "Up In The Morning - The Muckin'' O'' Geordie''s Byre - Cook O'' The North"
PERFORMER "Turriff and District Pipe Band"
INDEX 00 03:20:70
FILE "08 Up In The Morning - The Muckin'' O'' Geordie''s Byre - Cook O'' The North.wav" WAVE
INDEX 01 00:00:00
TRACK 09 AUDIO
TITLE "Battle On The Tyne"
PERFORMER "The Gordon Highlanders"
INDEX 00 02:52:50
FILE "09 Battle On The Tyne.wav" WAVE
INDEX 01 00:00:00
TRACK 10 AUDIO
TITLE "Skye Boat Song - Barren Rocks Of Aden - Faery Dance - Bonnie Dundee - Skye Bo..."
PERFORMER "The Gordon Highlanders"
INDEX 00 01:11:65
FILE "10 Skye Boat Song - Barren Rocks Of Aden - Faery Dance - Bonnie Dundee - Skye Boat Song.wav" WAVE
INDEX 01 00:00:00
TRACK 11 AUDIO
TITLE "Gordon B. Cosh - The Thistle Centre - Monarch Of The Glen"
PERFORMER "Jim Mac Leod"
INDEX 00 04:55:60
FILE "11 Gordon B. Cosh - The Thistle Centre - Monarch Of The Glen.wav" WAVE
INDEX 01 00:00:00
TRACK 12 AUDIO
TITLE "Bonnie Dundee"
PERFORMER "Ron Gonnella"
INDEX 00 02:27:55
FILE "12 Bonnie Dundee.wav" WAVE
INDEX 01 00:00:00
TRACK 13 AUDIO
TITLE "The Drumfries Polka"
PERFORMER "Addie Harper and the Wick Trio"
INDEX 00 03:21:07
FILE "13 The Drumfries Polka.wav" WAVE
INDEX 01 00:00:00
TRACK 14 AUDIO
TITLE "Prince Charles Welcome To Lochaber"
PERFORMER "The Massed Bands of Scottish Division"
INDEX 00 02:43:35
FILE "14 Prince Charles Welcome To Lochaber.wav" WAVE
INDEX 01 00:00:00
TRACK 15 AUDIO
TITLE "The Grinder"
PERFORMER "Glasgow Police Pipe Band"
INDEX 00 07:44:32
FILE "15 The Grinder.wav" WAVE
INDEX 01 00:00:00
TRACK 16 AUDIO
TITLE "Kate Dalrymple - The Kilt Is My Delight"
PERFORMER "Massed Pipes & Drums"
INDEX 00 04:52:73
FILE "16 Kate Dalrymple - The Kilt Is My Delight.wav" WAVE
INDEX 01 00:00:00
TRACK 17 AUDIO
TITLE "Braes Of Badenoch - Bogan Lochan - The Sheepwife"
PERFORMER "Invergordon Distillery Pipe Band"
INDEX 00 01:31:22
FILE "17 Braes Of Badenoch - Bogan Lochan - The Sheepwife.wav" WAVE
INDEX 01 00:00:00
TRACK 18 AUDIO
TITLE "The Soldier''s Return - Scotland The Brave"
PERFORMER "The Massed Bands of Scottish Division"
INDEX 00 04:43:00
FILE "18 The Soldier''s Return - Scotland The Brave.wav" WAVE
INDEX 01 00:00:00
01. The Gordon Highlanders / Scotland The Brave [0:02:02.55]
02. The Massed Bands Of Scottish Division / Highland Laddie, The Black Bear [0:01:44.67]
03. Invergordon Distillery Pipeband / Tam Bain''s Lum, The Four Courts [0:02:47.53]
04. Boghall & Bathgate Caledonia Pipeband / Drum Salute [0:03:34.27]
05. North Seas Gas / Hawks & Eagles [0:03:25.63]
06. Addie Harper And The Wick Trio / John Gunns Anniversary Snouts & Ears, Geordie The Roadman, Wattens Welcome To The Queens Mother [0:02:05.25]
07. Culture Ceilidh Band / Skye Boat Song, Mist Covered Mountains, Castlebay Fir Na Fhata, Skye Boat Song [0:07:27.50]
08. Queen Victoria School Pipe Band / Inverness Gathering, Australian Ladies [0:02:56.35]
09. Queens Own Highlanders Pipes & Drums / Ye Jacobites By Name, The Boys Of Blue Hill, Sporting Jamie, The Smith''s A Galliant Fireman, The Devil In The Kitchen, The Highland Train, The Ewe Wi'' The Crooked [0:03:59.32]
10. Red Hackle Pipes & Drums / Faded Vabbage, Bannana Fingers, Jim Tweedie''s Sea-Leg [0:03:27.58]
11. Red Hackle Pipes & Drums / Cockney Jocks, The Bonnie Lass O''Fyvie [0:01:52.05]
12. North Seas Gas / Flowers O'' Edinburgh [0:02:26.02]
13. Alasdair Gillies / Dancing In The Kyle [0:02:39.03]
14. Jim Mac Leod / Setons Ceilidh Band, Tubermory Two-Step [0:03:22.65]
15. Ron Gonnella / The Provost Of St. Vigeans, The Corner House [0:02:22.12]
16. The Gordon Highlanders / The Old Rustic Bridge By The Mill, Towsay Castle Money Musk, Miss McLeod O''Raasey, Cock Of The North, The Old Rustic Bridge By The Mill [0:05:23.05]
17. The Gordon Highlanders / Miss Kirkwood [0:05:40.55]
18. Boghall & Bathgate Caledonia Pipeband / Leaving The Field [0:02:24.40]
Exact Audio Copy V1.0 beta 3 from 29. August 2011

Отчёт EAC об извлечении, выполненном 10. января 2014, 18:19

Various / Hawks & Eagles

Дисковод: ASUS DRW-1814BLT Adapter: 4 ID: 0

Режим чтения : Достоверность
Использование точного потока : Да
Отключение кэша аудио : Да
Использование указателей C2 : Нет

Коррекция смещения при чтении : 6
Способность читать области Lead-in и Lead-out : Нет
Заполнение пропущенных сэмплов тишиной : Да
Удаление блоков с тишиной в начале и конце : Нет
При вычислениях CRC использовались нулевые сэмплы : Да
Интерфейс : Встроенный Win32-интерфейс для Win NT/2000
Обработка зазоров : Добавлено к предыдущему треку

Выходной формат : Пользовательский кодировщик
Выбранный битрейт : 128 kBit/s
Качество : Высокий
Добавление ID3-тега : Нет
Утилита сжатия : C:\Program Files\Exact Audio Copy\Flac\flac.exe
Дополнительные параметры : -V -8 -T "Genre=%genre%" -T "Artist=%artist%" -T "Title=%title%" -T "Album=%albumtitle%" -T "Date=%year%" -T "Tracknumber=%tracknr%" -T "Comment=EAC1.0b2 FLAC -8" %source%

TOC извлечённого CD

Трек | Старт | Длительность | Начальный сектор | Конечный сектор
---------------------------------------------------------------------
1 | 0:00.00 | 2:02.55 | 0 | 9204
2 | 2:02.55 | 1:44.67 | 9205 | 17071
3 | 3:47.47 | 2:47.53 | 17072 | 29649
4 | 6:35.25 | 3:34.27 | 29650 | 45726
5 | 10:09.52 | 3:25.63 | 45727 | 61164
6 | 13:35.40 | 2:05.25 | 61165 | 70564
7 | 15:40.65 | 7:27.50 | 70565 | 104139
8 | 23:08.40 | 2:56.35 | 104140 | 117374
9 | 26:05.00 | 3:59.32 | 117375 | 135331
10 | 30:04.32 | 3:27.58 | 135332 | 150914
11 | 33:32.15 | 1:52.05 | 150915 | 159319
12 | 35:24.20 | 2:26.02 | 159320 | 170271
13 | 37:50.22 | 2:39.03 | 170272 | 182199
14 | 40:29.25 | 3:22.65 | 182200 | 197414
15 | 43:52.15 | 2:22.12 | 197415 | 208076
16 | 46:14.27 | 5:23.05 | 208077 | 232306
17 | 51:37.32 | 5:40.55 | 232307 | 257861
18 | 57:18.12 | 2:24.40 | 257862 | 268701

Трек 1

Имя файла R:\Раздача 8\VA - The Bagpipes & Drums Of Scotland - 1996 (2CD)\CD 2\01 Scotland The Brave.wav

Длина предзазора 0:00:02.00

Пиковый уровень 94.5 %
Скорость извлечения 4.5 X
Качество трека 100.0 %
CRC теста 33D4FD11
CRC копии 33D4FD11
Копирование... OK

Трек 2

Имя файла R:\Раздача 8\VA - The Bagpipes & Drums Of Scotland - 1996 (2CD)\CD 2\02 Highland Laddie, The Black Bear.wav

Длина предзазора 0:00:03.00

Пиковый уровень 84.0 %
Скорость извлечения 3.6 X
Качество трека 99.8 %
CRC теста 95D818B9
CRC копии 95D818B9
Копирование... OK

Трек 3

Имя файла R:\Раздача 8\VA - The Bagpipes & Drums Of Scotland - 1996 (2CD)\CD 2\03 Tam Bain''s Lum, The Four Courts.wav

Длина предзазора 0:00:02.70

Пиковый уровень 90.8 %
Скорость извлечения 5.4 X
Качество трека 100.0 %
CRC теста FD847ECB
CRC копии FD847ECB
Копирование... OK

Трек 4

Имя файла R:\Раздача 8\VA - The Bagpipes & Drums Of Scotland - 1996 (2CD)\CD 2\04 Drum Salute.wav

Длина предзазора 0:00:02.68

Пиковый уровень 98.8 %
Скорость извлечения 6.0 X
Качество трека 100.0 %
CRC теста EE44D1AC
CRC копии EE44D1AC
Копирование... OK

Трек 5

Имя файла R:\Раздача 8\VA - The Bagpipes & Drums Of Scotland - 1996 (2CD)\CD 2\05 Hawks & Eagles.wav

Длина предзазора 0:00:02.57

Пиковый уровень 96.7 %
Скорость извлечения 5.6 X
Качество трека 99.9 %
CRC теста 037D61C6
CRC копии 037D61C6
Копирование... OK

Трек 6

Имя файла R:\Раздача 8\VA - The Bagpipes & Drums Of Scotland - 1996 (2CD)\CD 2\06 John Gunns Anniversary Snouts & Ears, Geordie The Roadman, Wattens Welcome To The Queens Mother.wav

Длина предзазора 0:00:03.03

Пиковый уровень 97.0 %
Скорость извлечения 6.1 X
Качество трека 100.0 %
CRC теста E2CE2C0D
CRC копии E2CE2C0D
Копирование... OK

Трек 7

Имя файла R:\Раздача 8\VA - The Bagpipes & Drums Of Scotland - 1996 (2CD)\CD 2\07 Skye Boat Song, Mist Covered Mountains, Castlebay Fir Na Fhata, Skye Boat Song.wav

Длина предзазора 0:00:02.58

Пиковый уровень 90.3 %
Скорость извлечения 7.9 X
Качество трека 100.0 %
CRC теста A889F4E1
CRC копии A889F4E1
Копирование... OK

Трек 8

Имя файла R:\Раздача 8\VA - The Bagpipes & Drums Of Scotland - 1996 (2CD)\CD 2\08 Inverness Gathering, Australian Ladies.wav

Длина предзазора 0:00:02.58

Пиковый уровень 88.9 %
Скорость извлечения 7.4 X
Качество трека 100.0 %
CRC теста AB74B1ED
CRC копии AB74B1ED
Копирование... OK

Трек 9

Имя файла R:\Раздача 8\VA - The Bagpipes & Drums Of Scotland - 1996 (2CD)\CD 2\09 Ye Jacobites By Name, The Boys Of Blue Hill, Sporting Jamie, The Smith''s A Galliant Fireman, The Devil In The Kitchen, The Highland Train, The Ewe Wi'' The Crooked.wav

Длина предзазора 0:00:02.50

Пиковый уровень 91.2 %
Скорость извлечения 8.1 X
Качество трека 100.0 %
CRC теста 407CBC14
CRC копии 407CBC14
Копирование... OK

Трек 10

Имя файла R:\Раздача 8\VA - The Bagpipes & Drums Of Scotland - 1996 (2CD)\CD 2\10 Faded Vabbage, Bannana Fingers, Jim Tweedie''s Sea-Leg.wav

Длина предзазора 0:00:02.57

Пиковый уровень 93.2 %
Скорость извлечения 8.3 X
Качество трека 100.0 %
CRC теста 349AA0AE
CRC копии 349AA0AE
Копирование... OK

Трек 11

Имя файла R:\Раздача 8\VA - The Bagpipes & Drums Of Scotland - 1996 (2CD)\CD 2\11 Cockney Jocks, The Bonnie Lass O''Fyvie.wav

Длина предзазора 0:00:02.63

Пиковый уровень 90.7 %
Скорость извлечения 7.5 X
Качество трека 100.0 %
CRC теста B61E9D5C
CRC копии B61E9D5C
Копирование... OK

Трек 12

Имя файла R:\Раздача 8\VA - The Bagpipes & Drums Of Scotland - 1996 (2CD)\CD 2\12 Flowers O'' Edinburgh.wav

Длина предзазора 0:00:02.70

Пиковый уровень 84.6 %
Скорость извлечения 8.1 X
Качество трека 100.0 %
CRC теста E6289BCD
CRC копии E6289BCD
Копирование... OK

Трек 13

Имя файла R:\Раздача 8\VA - The Bagpipes & Drums Of Scotland - 1996 (2CD)\CD 2\13 Dancing In The Kyle.wav

Длина предзазора 0:00:02.60

Пиковый уровень 95.8 %
Скорость извлечения 7.0 X
Качество трека 99.9 %
CRC теста 721D7A6D
CRC копии 721D7A6D
Копирование... OK

Трек 14

Имя файла R:\Раздача 8\VA - The Bagpipes & Drums Of Scotland - 1996 (2CD)\CD 2\14 Setons Ceilidh Band, Tubermory Two-Step.wav

Длина предзазора 0:00:02.63

Пиковый уровень 91.5 %
Скорость извлечения 7.8 X
Качество трека 99.9 %
CRC теста 50B01D90
CRC копии 50B01D90
Копирование... OK

Трек 15

Имя файла R:\Раздача 8\VA - The Bagpipes & Drums Of Scotland - 1996 (2CD)\CD 2\15 The Provost Of St. Vigeans, The Corner House.wav

Длина предзазора 0:00:02.60

Пиковый уровень 79.4 %
Скорость извлечения 8.6 X
Качество трека 100.0 %
CRC теста 259BDCE6
CRC копии 259BDCE6
Копирование... OK

Трек 16

Имя файла R:\Раздача 8\VA - The Bagpipes & Drums Of Scotland - 1996 (2CD)\CD 2\16 The Old Rustic Bridge By The Mill, Towsay Castle Money Musk, Miss McLeod O''Raasey, Cock Of The North, The Old Rustic Bridge By The Mill.wav

Длина предзазора 0:00:02.62

Пиковый уровень 96.6 %
Скорость извлечения 10.1 X
Качество трека 100.0 %
CRC теста 03D274A5
CRC копии 03D274A5
Копирование... OK

Трек 17

Имя файла R:\Раздача 8\VA - The Bagpipes & Drums Of Scotland - 1996 (2CD)\CD 2\17 Miss Kirkwood.wav

Длина предзазора 0:00:02.65

Пиковый уровень 97.1 %
Скорость извлечения 10.5 X
Качество трека 100.0 %
CRC теста B86BB36C
CRC копии B86BB36C
Копирование... OK

Трек 18

Имя файла R:\Раздача 8\VA - The Bagpipes & Drums Of Scotland - 1996 (2CD)\CD 2\18 Leaving The Field.wav

Длина предзазора 0:00:02.61

Пиковый уровень 98.8 %
Скорость извлечения 9.5 X
Качество трека 100.0 %
CRC теста 830F83F0
CRC копии 830F83F0
Копирование... OK

Ошибок не произошло

Конец отчёта

==== Контрольная сумма отчёта FA24EE27810784558F1BE73C4245619185AB60F48512DD78C6FBF320F3325DC9 ====
REM GENRE "Scotish Folk"
REM DATE 1996
REM DISCID ED0DFE12
REM COMMENT "ExactAudioCopy v1.0b3"
CATALOG 0000000000000
PERFORMER "Various"
TITLE "Hawks & Eagles"
FILE "01 Scotland The Brave.wav" WAVE
TRACK 01 AUDIO
TITLE "Scotland The Brave"
PERFORMER "The Gordon Highlanders"
INDEX 01 00:00:00
TRACK 02 AUDIO
TITLE "Highland Laddie, The Black Bear"
PERFORMER "The Massed Bands Of Scottish Division"
INDEX 00 01:59:55
FILE "02 Highland Laddie, The Black Bear.wav" WAVE
INDEX 01 00:00:00
TRACK 03 AUDIO
TITLE "Tam Bain''s Lum, The Four Courts"
PERFORMER "Invergordon Distillery Pipeband"
INDEX 00 01:41:72
FILE "03 Tam Bain''s Lum, The Four Courts.wav" WAVE
INDEX 01 00:00:00
TRACK 04 AUDIO
TITLE "Drum Salute"
PERFORMER "Boghall & Bathgate Caledonia Pipeband"
INDEX 00 02:44:60
FILE "04 Drum Salute.wav" WAVE
INDEX 01 00:00:00
TRACK 05 AUDIO
TITLE "Hawks & Eagles"
PERFORMER "North Seas Gas"
INDEX 00 03:31:45
FILE "05 Hawks & Eagles.wav" WAVE
INDEX 01 00:00:00
TRACK 06 AUDIO
TITLE "John Gunns Anniversary Snouts & Ears, Geordie The Roadman, Wattens Welcome To..."
PERFORMER "Addie Harper And The Wick Trio"
INDEX 00 03:22:60
FILE "06 John Gunns Anniversary Snouts & Ears, Geordie The Roadman, Wattens Welcome To The Queens Mother.wav" WAVE
INDEX 01 00:00:00
TRACK 07 AUDIO
TITLE "Skye Boat Song, Mist Covered Mountains, Castlebay Fir Na Fhata, Skye Boat Song"
PERFORMER "Culture Ceilidh Band"
INDEX 00 02:02:42
FILE "07 Skye Boat Song, Mist Covered Mountains, Castlebay Fir Na Fhata, Skye Boat Song.wav" WAVE
INDEX 01 00:00:00
TRACK 08 AUDIO
TITLE "Inverness Gathering, Australian Ladies"
PERFORMER "Queen Victoria School Pipe Band"
INDEX 00 07:24:67
FILE "08 Inverness Gathering, Australian Ladies.wav" WAVE
INDEX 01 00:00:00
TRACK 09 AUDIO
TITLE "Ye Jacobites By Name, The Boys Of Blue Hill, Sporting Jamie, The Smith''s A Ga..."
PERFORMER "Queens Own Highlanders Pipes & Drums"
INDEX 00 02:53:60
FILE "09 Ye Jacobites By Name, The Boys Of Blue Hill, Sporting Jamie, The Smith''s A Galliant Fireman, The Devil In The Kitchen, The Highland Train, The Ewe Wi'' The Crooked.wav" WAVE
INDEX 01 00:00:00
TRACK 10 AUDIO
TITLE "Faded Vabbage, Bannana Fingers, Jim Tweedie''s Sea-Leg"
PERFORMER "Red Hackle Pipes & Drums"
INDEX 00 03:56:50
FILE "10 Faded Vabbage, Bannana Fingers, Jim Tweedie''s Sea-Leg.wav" WAVE
INDEX 01 00:00:00
TRACK 11 AUDIO
TITLE "Cockney Jocks, The Bonnie Lass O''Fyvie"
PERFORMER "Red Hackle Pipes & Drums"
INDEX 00 03:24:70
FILE "11 Cockney Jocks, The Bonnie Lass O''Fyvie.wav" WAVE
INDEX 01 00:00:00
TRACK 12 AUDIO
TITLE "Flowers O'' Edinburgh"
PERFORMER "North Seas Gas"
INDEX 00 01:49:10
FILE "12 Flowers O'' Edinburgh.wav" WAVE
INDEX 01 00:00:00
TRACK 13 AUDIO
TITLE "Dancing In The Kyle"
PERFORMER "Alasdair Gillies"
INDEX 00 02:23:17
FILE "13 Dancing In The Kyle.wav" WAVE
INDEX 01 00:00:00
TRACK 14 AUDIO
TITLE "Setons Ceilidh Band, Tubermory Two-Step"
PERFORMER "Jim Mac Leod"
INDEX 00 02:36:15
FILE "14 Setons Ceilidh Band, Tubermory Two-Step.wav" WAVE
INDEX 01 00:00:00
TRACK 15 AUDIO
TITLE "The Provost Of St. Vigeans, The Corner House"
PERFORMER "Ron Gonnella"
INDEX 00 03:20:05
FILE "15 The Provost Of St. Vigeans, The Corner House.wav" WAVE
INDEX 01 00:00:00
TRACK 16 AUDIO
TITLE "The Old Rustic Bridge By The Mill, Towsay Castle Money Musk, Miss McLeod O''Ra..."
PERFORMER "The Gordon Highlanders"
INDEX 00 02:19:25
FILE "16 The Old Rustic Bridge By The Mill, Towsay Castle Money Musk, Miss McLeod O''Raasey, Cock Of The North, The Old Rustic Bridge By The Mill.wav" WAVE
INDEX 01 00:00:00
TRACK 17 AUDIO
TITLE "Miss Kirkwood"
PERFORMER "The Gordon Highlanders"
INDEX 00 05:20:15
FILE "17 Miss Kirkwood.wav" WAVE
INDEX 01 00:00:00
TRACK 18 AUDIO
TITLE "Leaving The Field"
PERFORMER "Boghall & Bathgate Caledonia Pipeband"
INDEX 00 05:37:69
FILE "18 Leaving The Field.wav" WAVE
INDEX 01 00:00:00


Трекер:  [ 13-Янв-2014 18:19 ]

  

Скачать .torrent

Размер .torrent файла 20 KB


Размер: 796 MB
Хэш (hash) релиза: fdffb68a8d8bd82445db72256150453e7973e428

Еще никто не оставлял запись к записи скачать торрент . Будь первым!

!Обратная связь