Скачать через торрент музыку Krzysztof Penderecki - The Complete Symphonies бесплатно без регистрации torrent

Если у вас наблюдаются проблемы со скриншотами, переходом по ссылками, скачиванием торрентов - проблемы в блокировщике рекламы AdBlock. #хорошегоДня!


Статистика раздачи
Размер:  1.14 GB   |    Зарегистрирован:  3 года 10 месяцев   |    .torrent скачан:  197 раз   |   
Раздают:  1  
   
Загрузка...
 
Автор Сообщение

Galfimbul

avatar Galfimbul


Krzysztof Penderecki - The Complete Symphonies (Special Edition, 5CD)

Жанр: Classical
Год издания диска: 2013
Издатель (лейбл): DUX (Poland)
Номер по каталогу: DUX0947
Аудиокодек: FLAC
Тип рипа: image+.cue
Битрейт аудио: lossless
Продолжительность: 4:50;11
Источник: собственный рип
Наличие сканов в содержимом раздачи: да (только сканы)
Исполнители:
Iwona Hossa - soprano, [CD 4, CD 5]
Izabella Ktosinska - soprano, [CD 4]
Agnieszka Rehlis - alto, [CD 4, CD 5]
Rafat Bartminski - tenor, [CD 4]
Wojtek Gierlach - bass, [CD 4]
Thomas E. Bauer - barinone, [CD 5]
Stawomir Holland - recitation, [CD 4]
The Choir or the Podlasie Opera and Philharmonic in Biatystok, [CD 4, CD 5]
Violetta Bielecka - choir preparation, [CD 4, CD 5]
Maciej Tworek - assistant conductor

The Polish Sinfonia luventus Orchestra
Krzysztof Penderecki - conductor
01. Symphony No.1- I Arche I 05:5602. II Dynamis I 13:2403. III Dynamis II 08:4204. IV Arche II 03:0705. Symphony No.2- Christmas Eve 33:25
Exact Audio Copy V1.0 beta 3 from 29. August 2011

EAC extraction logfile from 11. January 2014, 20:48

- / Krzysztof Penderecki - CD1 - Symphony No.1, Symphony No.2 Christmas Eve

Used drive : ATAPI iHAS122 C Adapter: 0 ID: 2

Read mode : Secure
Utilize accurate stream : Yes
Defeat audio cache : Yes
Make use of C2 pointers : No

Read offset correction : 6
Overread into Lead-In and Lead-Out : No
Fill up missing offset samples with silence : Yes
Delete leading and trailing silent blocks : No
Null samples used in CRC calculations : Yes
Used interface : Installed external ASPI interface

Used output format : User Defined Encoder
Selected bitrate : 192 kBit/s
Quality : High
Add ID3 tag : No
Command line compressor : C:\Program Files\Exact Audio Copy\Flac\flac.exe
Additional command line options : -V -8 -T "Date=%year%" -T "Genre=%genre%" %source%

TOC of the extracted CD

Track | Start | Length | Start sector | End sector
---------------------------------------------------------
1 | 0:00.00 | 5:55.68 | 0 | 26692
2 | 5:55.68 | 13:24.18 | 26693 | 87010
3 | 19:20.11 | 8:42.06 | 87011 | 126166
4 | 28:02.17 | 3:06.62 | 126167 | 140178
5 | 31:09.04 | 33:25.27 | 140179 | 290580

Range status and errors

Selected range

Filename C:\Program Files\Exact Audio Copy\Flac\Krzysztof Penderecki - CD1 - Symphony No.1, Symphony No.2 Christmas Eve.wav

Peak level 98.8 %
Extraction speed 9.1 X
Range quality 99.9 %
Test CRC 12FAC950
Copy CRC 12FAC950
Copy OK

No errors occurred

AccurateRip summary

Track 1 accurately ripped (confidence 1) [27B4F1F1] (AR v2)
Track 2 accurately ripped (confidence 1) [82A2E7E8] (AR v2)
Track 3 accurately ripped (confidence 1) [5B585CE3] (AR v2)
Track 4 accurately ripped (confidence 1) [4CA1A426] (AR v2)
Track 5 accurately ripped (confidence 1) [A260D5F6] (AR v2)

All tracks accurately ripped

End of status report

==== Log checksum 37638721C08A316031AA519CD14C1F0EB92AA3479C2DBA23E62E3EE7D96CE452 ====
REM GENRE Classical
REM DATE 2013
REM DISCID 3F0F2205
REM COMMENT "ExactAudioCopy v1.0b3"
PERFORMER ""
TITLE "Krzysztof Penderecki - CD1 - Symphony No.1, Symphony No.2 Christmas Eve"
FILE "Krzysztof Penderecki - CD1 - Symphony No.1, Symphony No.2 Christmas Eve.flac" WAVE
TRACK 01 AUDIO
TITLE "Symphony No.1- I Arche I "
PERFORMER "Krzysztof Penderecki"
FLAGS DCP
INDEX 01 00:00:00
TRACK 02 AUDIO
TITLE "II Dynamis I"
PERFORMER "Krzysztof Penderecki"
FLAGS DCP
INDEX 01 05:55:68
TRACK 03 AUDIO
TITLE "III Dynamis II"
PERFORMER "Krzysztof Penderecki"
FLAGS DCP
INDEX 01 19:20:11
TRACK 04 AUDIO
TITLE "IV Arche II"
PERFORMER "Krzysztof Penderecki"
FLAGS DCP
INDEX 01 28:02:17
TRACK 05 AUDIO
TITLE "Symphony No.2- Christmas Eve"
PERFORMER "Krzysztof Penderecki"
FLAGS DCP
INDEX 00 30:59:04
INDEX 01 31:09:04
01. Symphony No.3- I Andante con moto 03:3202. II Allegro con brio 11:1503. III Adagio 11:3904. IV Passacaglia. Allegro moderato 06:3505. V Scherzo. Vivace 11:30
Exact Audio Copy V1.0 beta 3 from 29. August 2011

EAC extraction logfile from 11. January 2014, 21:02

- / Krzysztof Penderecki - CD2 - Symphony No.3

Used drive : ATAPI iHAS122 C Adapter: 0 ID: 2

Read mode : Secure
Utilize accurate stream : Yes
Defeat audio cache : Yes
Make use of C2 pointers : No

Read offset correction : 6
Overread into Lead-In and Lead-Out : No
Fill up missing offset samples with silence : Yes
Delete leading and trailing silent blocks : No
Null samples used in CRC calculations : Yes
Used interface : Installed external ASPI interface

Used output format : User Defined Encoder
Selected bitrate : 192 kBit/s
Quality : High
Add ID3 tag : No
Command line compressor : C:\Program Files\Exact Audio Copy\Flac\flac.exe
Additional command line options : -V -8 -T "Date=%year%" -T "Genre=%genre%" %source%

TOC of the extracted CD

Track | Start | Length | Start sector | End sector
---------------------------------------------------------
1 | 0:00.00 | 3:31.45 | 0 | 15869
2 | 3:31.45 | 11:15.30 | 15870 | 66524
3 | 14:47.00 | 11:39.28 | 66525 | 118977
4 | 26:26.28 | 6:35.36 | 118978 | 148638
5 | 33:01.64 | 11:29.49 | 148639 | 200362

Range status and errors

Selected range

Filename C:\Program Files\Exact Audio Copy\Flac\Krzysztof Penderecki - CD2 - Symphony No.3.wav

Peak level 98.8 %
Extraction speed 8.4 X
Range quality 100.0 %
Test CRC 74579A68
Copy CRC 74579A68
Copy OK

No errors occurred

AccurateRip summary

Track 1 accurately ripped (confidence 1) [AE144032] (AR v2)
Track 2 accurately ripped (confidence 1) [4051DC95] (AR v2)
Track 3 accurately ripped (confidence 1) [7A1FF376] (AR v2)
Track 4 accurately ripped (confidence 1) [0991959C] (AR v2)
Track 5 accurately ripped (confidence 1) [16DA70B6] (AR v2)

All tracks accurately ripped

End of status report

==== Log checksum 21DEFDE5FF5F6E8F7DCF3329A7D4EE226D093163B40751A84326DEC5936CF21C ====
REM GENRE Classical
REM DATE 2013
REM DISCID 4C0A6F05
REM COMMENT "ExactAudioCopy v1.0b3"
PERFORMER ""
TITLE "Krzysztof Penderecki - CD2 - Symphony No.3"
FILE "Krzysztof Penderecki - CD2 - Symphony No.3.flac" WAVE
TRACK 01 AUDIO
TITLE "Symphony No.3- I Andante con moto"
PERFORMER "Krzysztof Penderecki"
FLAGS DCP
INDEX 01 00:00:00
TRACK 02 AUDIO
TITLE "II Allegro con brio"
PERFORMER "Krzysztof Penderecki"
FLAGS DCP
INDEX 01 03:31:45
TRACK 03 AUDIO
TITLE "III Adagio "
PERFORMER "Krzysztof Penderecki"
FLAGS DCP
INDEX 01 14:47:00
TRACK 04 AUDIO
TITLE "IV Passacaglia. Allegro moderato"
PERFORMER "Krzysztof Penderecki"
FLAGS DCP
INDEX 01 26:26:28
TRACK 05 AUDIO
TITLE "V Scherzo. Vivace"
PERFORMER "Krzysztof Penderecki"
FLAGS DCP
INDEX 01 33:01:64
01. Symphony No.4 Adagio- I Adagio 04:2802. II Piu animato, agitato 03:3003. III Tempo I 12:4504. IV Allegro 06:1105. V Tempo I 03:4306. Symphony No.5 Korean 37:59
Exact Audio Copy V1.0 beta 3 from 29. August 2011

EAC extraction logfile from 11. January 2014, 21:24

- / Krzysztof Penderecki - CD3 - Symphony No.4 Adagio, Symphony No.5 Korean

Used drive : ATAPI iHAS122 C Adapter: 0 ID: 2

Read mode : Secure
Utilize accurate stream : Yes
Defeat audio cache : Yes
Make use of C2 pointers : No

Read offset correction : 6
Overread into Lead-In and Lead-Out : No
Fill up missing offset samples with silence : Yes
Delete leading and trailing silent blocks : No
Null samples used in CRC calculations : Yes
Used interface : Installed external ASPI interface

Used output format : User Defined Encoder
Selected bitrate : 192 kBit/s
Quality : High
Add ID3 tag : No
Command line compressor : C:\Program Files\Exact Audio Copy\Flac\flac.exe
Additional command line options : -V -8 -T "Date=%year%" -T "Genre=%genre%" %source%

TOC of the extracted CD

Track | Start | Length | Start sector | End sector
---------------------------------------------------------
1 | 0:00.00 | 4:27.58 | 0 | 20082
2 | 4:27.58 | 3:29.69 | 20083 | 35826
3 | 7:57.52 | 12:44.45 | 35827 | 93171
4 | 20:42.22 | 6:11.36 | 93172 | 121032
5 | 26:53.58 | 3:42.49 | 121033 | 137731
6 | 30:36.32 | 37:59.01 | 137732 | 308657

Range status and errors

Selected range

Filename C:\Program Files\Exact Audio Copy\Flac\Krzysztof Penderecki - CD3 - Symphony No.4 Adagio, Symphony No.5 Korean.wav

Peak level 99.8 %
Extraction speed 9.1 X
Range quality 100.0 %
Test CRC 69E29760
Copy CRC 69E29760
Copy OK

No errors occurred

AccurateRip summary

Track 1 accurately ripped (confidence 1) [E2CA816C] (AR v2)
Track 2 accurately ripped (confidence 1) [F84D4F21] (AR v2)
Track 3 accurately ripped (confidence 1) [130485F0] (AR v2)
Track 4 accurately ripped (confidence 1) [BBF2CCC7] (AR v2)
Track 5 accurately ripped (confidence 1) [D08EF94C] (AR v2)
Track 6 accurately ripped (confidence 1) [2464FA55] (AR v2)

All tracks accurately ripped

End of status report

==== Log checksum 42AFF3BDE0E778C3147B7EE5EC7D7441294C942D88680419340376B2BCA60E5C ====
REM GENRE Classical
REM DATE 2013
REM DISCID 53101306
REM COMMENT "ExactAudioCopy v1.0b3"
PERFORMER ""
TITLE "Krzysztof Penderecki - CD3 - Symphony No.4 Adagio, Symphony No.5 Korean"
FILE "Krzysztof Penderecki - CD3 - Symphony No.4 Adagio, Symphony No.5 Korean.flac" WAVE
TRACK 01 AUDIO
TITLE "Symphony No.4 Adagio- I Adagio"
PERFORMER "Krzysztof Penderecki"
INDEX 01 00:00:00
TRACK 02 AUDIO
TITLE "II Piu animato, agitato"
PERFORMER "Krzysztof Penderecki"
INDEX 01 04:27:58
TRACK 03 AUDIO
TITLE "III Tempo I"
PERFORMER "Krzysztof Penderecki"
INDEX 01 07:57:52
TRACK 04 AUDIO
TITLE "IV Allegro"
PERFORMER "Krzysztof Penderecki"
INDEX 01 20:42:22
TRACK 05 AUDIO
TITLE "V Tempo I"
PERFORMER "Krzysztof Penderecki"
INDEX 01 26:53:58
TRACK 06 AUDIO
TITLE "Symphony No.5 Korean"
PERFORMER "Krzysztof Penderecki"
INDEX 00 30:26:32
INDEX 01 30:36:32
01. Symphony No.7 Seven Gates of Jerusalem- I Magnus Dominus et laudabilis nimis 11:4702. II Si oblitus fuero tui, Jerusalem 02:4403. III De profundis 06:2604. IV Si oblitus fuero tui, Jerusalem 05:2805. V Lauda, Jerusalem, Dominum 18:0506. VI Facta est super me manus Domini 05:4307. VII Haec dicit Dominus: Ecce ego do coram vobis viam vitae, et viam mortis 12:50
Exact Audio Copy V1.0 beta 3 from 29. August 2011

EAC extraction logfile from 11. January 2014, 21:46

- / Krzysztof Penderecki - CD4 - Symphony No.7 Seven Gates of Jerusalem

Used drive : ATAPI iHAS122 C Adapter: 0 ID: 2

Read mode : Secure
Utilize accurate stream : Yes
Defeat audio cache : Yes
Make use of C2 pointers : No

Read offset correction : 6
Overread into Lead-In and Lead-Out : No
Fill up missing offset samples with silence : Yes
Delete leading and trailing silent blocks : No
Null samples used in CRC calculations : Yes
Used interface : Installed external ASPI interface

Used output format : User Defined Encoder
Selected bitrate : 192 kBit/s
Quality : High
Add ID3 tag : No
Command line compressor : C:\Program Files\Exact Audio Copy\Flac\flac.exe
Additional command line options : -V -8 -T "Date=%year%" -T "Genre=%genre%" %source%

TOC of the extracted CD

Track | Start | Length | Start sector | End sector
---------------------------------------------------------
1 | 0:00.00 | 11:47.32 | 0 | 53056
2 | 11:47.32 | 2:44.11 | 53057 | 65367
3 | 14:31.43 | 6:25.62 | 65368 | 94304
4 | 20:57.30 | 5:27.52 | 94305 | 118881
5 | 26:25.07 | 18:05.23 | 118882 | 200279
6 | 44:30.30 | 5:42.59 | 200280 | 225988
7 | 50:13.14 | 12:50.08 | 225989 | 283746

Range status and errors

Selected range

Filename C:\Program Files\Exact Audio Copy\Flac\Krzysztof Penderecki - CD4 - Symphony No.7 Seven Gates of Jerusalem.wav

Peak level 98.8 %
Extraction speed 9.2 X
Range quality 100.0 %
Test CRC 475399DB
Copy CRC 475399DB
Copy OK

No errors occurred

AccurateRip summary

Track 1 accurately ripped (confidence 1) [4CD77B24] (AR v2)
Track 2 accurately ripped (confidence 1) [D48C272F] (AR v2)
Track 3 accurately ripped (confidence 1) [2B55DB35] (AR v2)
Track 4 accurately ripped (confidence 1) [F5D74CFC] (AR v2)
Track 5 accurately ripped (confidence 1) [EC8C8347] (AR v2)
Track 6 accurately ripped (confidence 1) [352CC0E6] (AR v2)
Track 7 accurately ripped (confidence 1) [2B873C50] (AR v2)

All tracks accurately ripped

End of status report

==== Log checksum F252DE6DCE84B040D9E86655974D66A268D79DB55AF32AE085C640B1B9A64A27 ====
REM GENRE Classical
REM DATE 2013
REM DISCID 640EC707
REM COMMENT "ExactAudioCopy v1.0b3"
PERFORMER ""
TITLE "Krzysztof Penderecki - CD4 - Symphony No.7 Seven Gates of Jerusalem"
FILE "Krzysztof Penderecki - CD4 - Symphony No.7 Seven Gates of Jerusalem.flac" WAVE
TRACK 01 AUDIO
TITLE "Symphony No.7 Seven Gates of Jerusalem- I Magnus Dominus et laudabilis nimis"
PERFORMER ""
INDEX 01 00:00:00
TRACK 02 AUDIO
TITLE "II Si oblitus fuero tui, Jerusalem"
PERFORMER ""
INDEX 01 11:47:32
TRACK 03 AUDIO
TITLE "III De profundis"
PERFORMER ""
INDEX 01 14:31:43
TRACK 04 AUDIO
TITLE "IV Si oblitus fuero tui, Jerusalem"
PERFORMER ""
INDEX 01 20:57:30
TRACK 05 AUDIO
TITLE "V Lauda, Jerusalem, Dominum"
PERFORMER ""
INDEX 01 26:25:07
TRACK 06 AUDIO
TITLE "VI Facta est super me manus Domini"
PERFORMER ""
INDEX 01 44:30:30
TRACK 07 AUDIO
TITLE "VII Haec dicit Dominus: Ecce ego do coram vobis viam vitae, et viam mortis"
PERFORMER ""
INDEX 01 50:13:14
01. I Nachts (Joseph von Eichendorff) 03:0002. II Ende des Herbstes (Rainer Maria Rilke) 00:5303. III Der brennende Baum (Bertold Brecht) 08:2104. IV Bei einer Linde (Joseph von Eichendorff) 02:1605. V Flieder (Karl Kraus) 02:1706. VI Fruhlingsnacht (Hermann Hesse) 03:1907. VII Ende des Herbstes (Rainer Maria Rilke) 00:5308. VIII Sag'' ich''s euch, geliebte Baume (Johann Wolfgang von Goethe) 03:2609. IX Im Nebel (Hermann Hesse) 02:3810. X Der Blutengarten (Hans Bethge) 03:4211. XI Abschied (Joseph von Eichendorff) 05:0912. XII Verganglichkeit (Hermann Hesse) 01:5713. XIII Ende des Herbstes (Rainer Maria Rilke) 01:5114. XIV Herbsttag (Rainer Maria Rilke) 02:1715. XV O gruner Baum des Lebens (Achim von Arnim) 07:32
Exact Audio Copy V1.0 beta 3 from 29. August 2011

EAC extraction logfile from 11. January 2014, 22:20

- / Krzysztof Penderecki - CD5 - Symphony No.8 Lieder der Verganglichkeit

Used drive : ATAPI iHAS122 C Adapter: 0 ID: 2

Read mode : Secure
Utilize accurate stream : Yes
Defeat audio cache : Yes
Make use of C2 pointers : No

Read offset correction : 6
Overread into Lead-In and Lead-Out : No
Fill up missing offset samples with silence : Yes
Delete leading and trailing silent blocks : No
Null samples used in CRC calculations : Yes
Used interface : Installed external ASPI interface

Used output format : User Defined Encoder
Selected bitrate : 192 kBit/s
Quality : High
Add ID3 tag : No
Command line compressor : C:\Program Files\Exact Audio Copy\Flac\flac.exe
Additional command line options : -V -8 -T "Date=%year%" -T "Genre=%genre%" %source%

TOC of the extracted CD

Track | Start | Length | Start sector | End sector
---------------------------------------------------------
1 | 0:00.00 | 2:59.48 | 0 | 13472
2 | 2:59.48 | 0:52.47 | 13473 | 17419
3 | 3:52.20 | 8:20.62 | 17420 | 54981
4 | 12:13.07 | 2:15.63 | 54982 | 65169
5 | 14:28.70 | 2:16.62 | 65170 | 75431
6 | 16:45.57 | 3:19.26 | 75432 | 90382
7 | 20:05.08 | 0:52.39 | 90383 | 94321
8 | 20:57.47 | 3:25.45 | 94322 | 109741
9 | 24:23.17 | 2:37.42 | 109742 | 121558
10 | 27:00.59 | 3:41.63 | 121559 | 138196
11 | 30:42.47 | 5:09.36 | 138197 | 161407
12 | 35:52.08 | 1:56.53 | 161408 | 170160
13 | 37:48.61 | 1:50.41 | 170161 | 178451
14 | 39:39.27 | 2:17.24 | 178452 | 188750
15 | 41:56.51 | 7:32.07 | 188751 | 222657

Range status and errors

Selected range

Filename C:\Program Files\Exact Audio Copy\Flac\Krzysztof Penderecki - CD5 - Symphony No.8 Lieder der Verganglichkeit.wav

Peak level 96.6 %
Extraction speed 8.6 X
Range quality 100.0 %
Test CRC A111CB41
Copy CRC A111CB41
Copy OK

No errors occurred

AccurateRip summary

Track 1 accurately ripped (confidence 1) [7BA13B24] (AR v2)
Track 2 accurately ripped (confidence 1) [4CBE0316] (AR v2)
Track 3 accurately ripped (confidence 1) [EDE957B9] (AR v2)
Track 4 accurately ripped (confidence 1) [8349A0B8] (AR v2)
Track 5 accurately ripped (confidence 1) [499B907E] (AR v2)
Track 6 accurately ripped (confidence 1) [BA54FA7B] (AR v2)
Track 7 accurately ripped (confidence 1) [0DD9D906] (AR v2)
Track 8 accurately ripped (confidence 1) [B8D65854] (AR v2)
Track 9 accurately ripped (confidence 1) [F93CA599] (AR v2)
Track 10 accurately ripped (confidence 1) [61AFD110] (AR v2)
Track 11 accurately ripped (confidence 1) [FCEAF8DA] (AR v2)
Track 12 accurately ripped (confidence 1) [0F66E27E] (AR v2)
Track 13 accurately ripped (confidence 1) [7E15C731] (AR v2)
Track 14 accurately ripped (confidence 1) [41AC2D54] (AR v2)
Track 15 accurately ripped (confidence 1) [C39BABAC] (AR v2)

All tracks accurately ripped

End of status report

==== Log checksum DC5E8568CCB2ECF05FBED0BA7841DEEC84918467B891D0294B34DB7455D1BA15 ====
REM GENRE Classical
REM DATE 2013
REM DISCID B70B980F
REM COMMENT "ExactAudioCopy v1.0b3"
PERFORMER ""
TITLE "Krzysztof Penderecki - CD5 - Symphony No.8 Lieder der Verganglichkeit"
FILE "Krzysztof Penderecki - CD5 - Symphony No.8 Lieder der Verganglichkeit.flac" WAVE
TRACK 01 AUDIO
TITLE "I Nachts (Joseph von Eichendorff)"
PERFORMER "Krzysztof Penderecki"
INDEX 01 00:00:00
TRACK 02 AUDIO
TITLE "II Ende des Herbstes (Rainer Maria Rilke)"
PERFORMER "Krzysztof Penderecki"
INDEX 01 02:59:48
TRACK 03 AUDIO
TITLE "III Der brennende Baum (Bertold Brecht)"
PERFORMER "Krzysztof Penderecki"
INDEX 01 03:52:20
TRACK 04 AUDIO
TITLE "IV Bei einer Linde (Joseph von Eichendorff)"
PERFORMER "Krzysztof Penderecki"
INDEX 01 12:13:07
TRACK 05 AUDIO
TITLE "V Flieder (Karl Kraus)"
PERFORMER "Krzysztof Penderecki"
INDEX 01 14:28:70
TRACK 06 AUDIO
TITLE "VI Fruhlingsnacht (Hermann Hesse)"
PERFORMER "Krzysztof Penderecki"
INDEX 01 16:45:57
TRACK 07 AUDIO
TITLE "VII Ende des Herbstes (Rainer Maria Rilke)"
PERFORMER "Krzysztof Penderecki"
INDEX 01 20:05:08
TRACK 08 AUDIO
TITLE "VIII Sag'' ich''s euch, geliebte Baume (Johann Wolfgang von Goethe)"
PERFORMER "Krzysztof Penderecki"
INDEX 01 20:57:47
TRACK 09 AUDIO
TITLE "IX Im Nebel (Hermann Hesse)"
PERFORMER "Krzysztof Penderecki"
INDEX 01 24:23:17
TRACK 10 AUDIO
TITLE "X Der Blutengarten (Hans Bethge)"
PERFORMER "Krzysztof Penderecki"
INDEX 01 27:00:59
TRACK 11 AUDIO
TITLE "XI Abschied (Joseph von Eichendorff)"
PERFORMER "Krzysztof Penderecki"
INDEX 01 30:42:47
TRACK 12 AUDIO
TITLE "XII Verganglichkeit (Hermann Hesse)"
PERFORMER "Krzysztof Penderecki"
INDEX 01 35:52:08
TRACK 13 AUDIO
TITLE "XIII Ende des Herbstes (Rainer Maria Rilke)"
PERFORMER "Krzysztof Penderecki"
INDEX 01 37:48:61
TRACK 14 AUDIO
TITLE "XIV Herbsttag (Rainer Maria Rilke)"
PERFORMER "Krzysztof Penderecki"
INDEX 01 39:39:27
TRACK 15 AUDIO
TITLE "XV O gruner Baum des Lebens (Achim von Arnim)"
PERFORMER "Krzysztof Penderecki"
INDEX 01 41:56:51


Трекер:  [ 13-Янв-2014 14:38 ]

  

Скачать .torrent

Размер .torrent файла 13 KB


Размер: 1.14 GB
Хэш (hash) релиза: 6dca2cbb00aae25768e62e9fe157db5a8a5f6bb4

Еще никто не оставлял запись к записи скачать торрент Krzysztof Penderecki - The Complete Symphonies . Будь первым!

!Обратная связь