Скачать через торрент музыку бесплатно без регистрации torrent

Если у вас наблюдаются проблемы со скриншотами, переходом по ссылками, скачиванием торрентов - проблемы в блокировщике рекламы AdBlock. #хорошегоДня!


Статистика раздачи
Размер:  263 MB   |    Зарегистрирован:  3 года 10 месяцев   |    .torrent скачан:  222 раза   |   
Раздают:  1  
   
Загрузка...
 
Автор Сообщение

Galfimbul

avatar Galfimbul


Pandelis Karayorgis Trio / Blood Ballad

Жанр: Free Improvisation
Носитель: CD
Страна-производитель диска: UK
Год издания: 2001
Издатель (лейбл): Leo Records
Номер по каталогу: CD LR 325
Аудиокодек: FLAC (*.flac)
Тип рипа: image+.cue
Битрейт аудио: lossless
Продолжительность: 55:06
Источник (релизер): CD
Наличие сканов в содержимом раздачи: нет
Треклист:
1. In The Cracks Of Four 6:05
2. Blood Ballad 6:29
3. Coming Out Of Nothing 7:00
4. Ask 8:20
5. Stomp On One 4:36
6. Tomorrow Was 6:55
7. Centennial 5:44
8. Don''t Ask 3:48
9. One Up, One Down 6:06
Exact Audio Copy V1.0 beta 2 from 29. April 2011

EAC extraction logfile from 13. January 2014, 10:47

Pandelis Karayorgis Trio / Blood Ballad

Used drive : Optiarc DVD RW AD-7170A Adapter: 0 ID: 0

Read mode : SecureUtilize accurate stream : YesDefeat audio cache : YesMake use of C2 pointers : No

Read offset correction : 48Overread into Lead-In and Lead-Out : NoFill up missing offset samples with silence : YesDelete leading and trailing silent blocks : NoNull samples used in CRC calculations : YesUsed interface : Native Win32 interface for Win NT & 2000

Used output format : User Defined EncoderSelected bitrate : 320 kBit/sQuality : HighAdd ID3 tag : NoCommand line compressor : C:\Program Files\Exact Audio Copy\Flac\flac.exeAdditional command line options : -V -8 -T "Date=%year%" -T "Genre=%genre%" %source%

TOC of the extracted CD

Track | Start | Length | Start sector | End sector --------------------------------------------------------- 1 | 0:00.00 | 6:05.57 | 0 | 27431 2 | 6:05.57 | 6:29.48 | 27432 | 56654 3 | 12:35.30 | 7:00.47 | 56655 | 88201 4 | 19:36.02 | 8:20.08 | 88202 | 125709 5 | 27:56.10 | 4:36.17 | 125710 | 146426 6 | 32:32.27 | 6:55.28 | 146427 | 177579 7 | 39:27.55 | 5:44.15 | 177580 | 203394 8 | 45:11.70 | 3:48.12 | 203395 | 220506 9 | 49:00.07 | 6:06.40 | 220507 | 247996

Range status and errors

Selected range

Filename K:\ЕАС\Pandelis Karayorgis Trio - Blood Ballad.wav

Peak level 100.0 % Extraction speed 1.0 X Range quality 99.7 % Test CRC 0A62BA30 Copy CRC 0A62BA30 Copy OK

No errors occurred

AccurateRip summary

Track 1 accurately ripped (confidence 1) [5C851C19] (AR v1)Track 2 accurately ripped (confidence 1) [9835D68D] (AR v1)Track 3 accurately ripped (confidence 1) [40AB51C7] (AR v1)Track 4 accurately ripped (confidence 1) [E90933E0] (AR v1)Track 5 accurately ripped (confidence 1) [B0B0D64B] (AR v1)Track 6 accurately ripped (confidence 1) [7C234A8C] (AR v1)Track 7 accurately ripped (confidence 1) [413B44CF] (AR v1)Track 8 accurately ripped (confidence 1) [FBB2FDBB] (AR v1)Track 9 accurately ripped (confidence 1) [0208D50E] (AR v1)

All tracks accurately ripped

End of status report

==== Log checksum B3F5848B7140AE9B8351B3839323C7C721A00EF08F78C9D19CD1FE667937EB6F ====
REM GENRE JazzREM DATE 2001REM DISCID 910CEA09REM COMMENT "ExactAudioCopy v1.0b2"PERFORMER "Pandelis Karayorgis Trio"TITLE "Blood Ballad"FILE "Pandelis Karayorgis Trio - Blood Ballad.flac" WAVE TRACK 01 AUDIO TITLE "In the Cracks Of Four" PERFORMER "Pandelis Karayorgis Trio" ISRC 000000000000 INDEX 01 00:00:00 TRACK 02 AUDIO TITLE "Blood Ballad" PERFORMER "Pandelis Karayorgis Trio" ISRC 000000000000 INDEX 01 06:05:57 TRACK 03 AUDIO TITLE "Coming Out Of Nothing" PERFORMER "Pandelis Karayorgis Trio" ISRC 000000000000 INDEX 01 12:35:30 TRACK 04 AUDIO TITLE "Ask" PERFORMER "Pandelis Karayorgis Trio" ISRC 000000000000 INDEX 01 19:36:02 TRACK 05 AUDIO TITLE "Stomp On One" PERFORMER "Pandelis Karayorgis Trio" ISRC 000000000000 INDEX 01 27:56:10 TRACK 06 AUDIO TITLE "Tomorrow Was" PERFORMER "Pandelis Karayorgis Trio" ISRC 000000000000 INDEX 00 32:30:57 INDEX 01 32:32:27 TRACK 07 AUDIO TITLE "Centennial" PERFORMER "Pandelis Karayorgis Trio" ISRC 000000000000 INDEX 01 39:27:55 TRACK 08 AUDIO TITLE "Don''t Ask" PERFORMER "Pandelis Karayorgis Trio" ISRC 000000000000 INDEX 00 45:09:60 INDEX 01 45:11:70 TRACK 09 AUDIO TITLE "One Up, One Down" PERFORMER "Pandelis Karayorgis Trio" ISRC 000000000000 INDEX 01 49:00:07
Доп. информация: Recorded on 25/26 April 2000 Acoustic Recording, Brooklyn, New York
Bass – Nate McBride
Drums – Randy Peterson
Piano – Pandelis Karayorgis


Трекер:  [ 13-Янв-2014 14:37 ]

  

Скачать .torrent

Размер .torrent файла 11 KB


Размер: 263 MB
Хэш (hash) релиза: b89b4bde26c14ab60ab2dd1023dc7e771977a78c

Еще никто не оставлял запись к записи скачать торрент . Будь первым!

!Обратная связь