Скачать через торрент музыку Inna - Sun is up бесплатно без регистрации torrent

Если у вас наблюдаются проблемы со скриншотами, переходом по ссылками, скачиванием торрентов - проблемы в блокировщике рекламы AdBlock. #хорошегоДня!


Статистика раздачи
Размер:  60 MB   |    Зарегистрирован:  6 лет 8 месяцев   |    .torrent скачан:  57 раз   |   
Раздают:  1  
   
Загрузка...
 
Автор Сообщение

Mos

avatar Mos


Inna - Sun is up

Страна: Romania
Жанр: Pop, Dance
Продолжительность: 00:03:11
Год выпуска: 2010
Источник: собственный рип

Качество: DVDRip
Контейнер: AVI
Видео кодек: XviD
Аудио кодек: AC3
Видео: Xvid 720x400 16:9 2302kbps 25.00fps
Аудио: Dolby AC3 320kbps 48000Hz stereo

Описание: Съемки видео на один из последних синглов Инны "Sun is up" проходили 24 августа в испанской Марбеллье.
Режиссер клипа - Alex Herron.
Премьера состоялась 30 сентября 2010 года на официальном сайте румынской исполнительницы.
 
GeneralComplete name : C:\Documents and Settings\Admin\Мои документы\Torrents\Inna - Sun is up.aviFormat : AVIFormat/Info : Audio Video InterleaveFile size : 60.2 MiBDuration : 3mn 11sOverall bit rate : 2 632 KbpsWriting application : VirtualDubMod 1.5.10.2 (build 2540/release)Writing library : VirtualDubMod build 2540/release

VideoID : 0Format : MPEG-4 VisualFormat profile : Advanced Simple@L5Format settings, BVOP : YesFormat settings, QPel : NoFormat settings, GMC : No warppointsFormat settings, Matrix : Default (MPEG)Codec ID : XVIDCodec ID/Hint : XviDDuration : 3mn 11sBit rate : 2 302 KbpsWidth : 720 pixelsHeight : 400 pixelsDisplay aspect ratio : 16:9Frame rate : 25.000 fpsColor space : YUVChroma subsampling : 4:2:0Bit depth : 8 bitsScan type : ProgressiveCompression mode : LossyBits/(Pixel*Frame) : 0.320Stream size : 52.6 MiB (87%)Writing library : XviD 1.2.1 (UTC 2008-12-04)

AudioID : 1Format : AC-3Format/Info : Audio Coding 3Mode extension : CM (complete main)Codec ID : 2000Duration : 3mn 11sBit rate mode : ConstantBit rate : 320 KbpsChannel(s) : 2 channelsChannel positions : Front: L RSampling rate : 48.0 KHzBit depth : 16 bitsCompression mode : LossyStream size : 7.31 MiB (12%)Alignment : Split accross interleavesInterleave, duration : 40 ms (1.00 video frame)Interleave, preload duration : 500 ms


Трекер:  [ 02-Фев-2011 09:52 ]

  

Скачать .torrent

Размер .torrent файла 19 KB


Размер: 60 MB
Хэш (hash) релиза: d3e7ef5256ff1a18923f90f0726c953981c9d767

Торренты, похожие на Inna - Sun is up скачать торрент

Форум Название Автор Размер S L Добавлен
Электронная музыка ·· Inna - Sun Is Up [2011, Pop, Dance, 720p] Galfimbul 140580789134 MB 0 0 1340468760

19:26

23-Июн-12

Еще никто не оставлял запись к записи скачать торрент Inna - Sun is up . Будь первым!

!Обратная связь