Скачать порно через торрент Tokubetsu Jugyou 3 SLG The Animation Частные уроки 3 UnionPeer.org бесплатно онлайн HD качество

Скачать новое порно 2015, 2014 новинки через торрент UnionPeer.org

Порно торрент бесплатно ЮнионПир.орг

Если у вас наблюдаются проблемы со скриншотами, переходом по ссылками, скачиванием торрентов - проблемы в блокировщике рекламы AdBlock. #хорошегоДня!


Статистика раздачи
Размер:  240 MB   |    Зарегистрирован:  3 года 7 месяцев   |    .torrent скачан:  141 раз   |   
Раздают:  1  
   
Загрузка...
 
Автор Сообщение

Galfimbul

avatar Galfimbul


特別授業3SLG The Animation
Tokubetsu Jugyou 3 SLG The Animation
Частные уроки 3

Год производства: 2014 г.
Жанр: School, Oral sex, Bdsm, rape,
Серии: ep. 1
Продолжительность: 22 min
Цензура: Есть

Озвучка: Японская Оригинальная
Субтитры: Английские [EROBEAT_LQ] внешние ASS/SSA
Субтитры: Русские [Перевод Vattok_SS]внешние ASS/SSA

Студия:Milky

Описание: Dim classroom.Some sign of life.Smell of female enough remember the dizziness.I stimulate the male instinct.Small scream heard faintly.Expected to reject, in the consciousness that there is pleasure in pain and Hazama, the current and dream, they are Yuku waking eyes joy of it to serve as a faithful slave ... meat. чушь полное

Качество видео: DVDRip ????
Формат видео: MP4
Видео: MPEG4 Video (H264) 720x400 29.976 fps 1442kbps
Аудио: AAC 44100Hz stereo 111kbps
General
Complete name : D:\Tokubetsu Jugyou 3 SLG The Animation\Tokubetsu_Jugyou_3SLG - 01.MP4
Format : MPEG-4
Format profile : Mobile version
Codec ID : mmp4
File size : 240 MiB
Duration : 21mn 31s
Overall bit rate mode : Variable
Overall bit rate : 1 557 Kbps
Encoded date : UTC 2014-01-05 18:13:19
Tagged date : UTC 2014-01-05 18:13:19

Video
ID : 1
Format : AVC
Format/Info : Advanced Video Codec
Format profile : High@L4.1
Format settings, CABAC : Yes
Format settings, ReFrames : 1 frame
Codec ID : avc1
Codec ID/Info : Advanced Video Coding
Duration : 21mn 31s
Bit rate mode : Variable
Bit rate : 1 442 Kbps
Maximum bit rate : 22.9 Mbps
Width : 720 pixels
Height : 400 pixels
Display aspect ratio : 16:9
Frame rate mode : Constant
Frame rate : 29.970 fps
Color space : YUV
Chroma subsampling : 4:2:0
Bit depth : 8 bits
Scan type : Progressive
Bits/(Pixel*Frame) : 0.167
Stream size : 222 MiB (93%)
Tagged date : UTC 2014-01-05 18:13:38

Audio
ID : 2
Format : AAC
Format/Info : Advanced Audio Codec
Format profile : LC
Codec ID : 40
Duration : 21mn 31s
Bit rate mode : Variable
Bit rate : 112 Kbps
Maximum bit rate : 165 Kbps
Channel count : 2 channels
Channel positions : Front: L R
Sampling rate : 44.1 KHz
Compression mode : Lossy
Stream size : 17.2 MiB (7%)
Encoded date : UTC 2014-01-05 18:13:31
Tagged date : UTC 2014-01-05 18:13:38


Трекер:  [ 11-Янв-2014 12:26 ]

  

Скачать .torrent

Размер .torrent файла 19 KB


Размер: 240 MB
Хэш (hash) релиза: 5c457ac27aa0ff7cf7e325b968591e858c7b9532

Торренты, похожие на Tokubetsu Jugyou 3 SLG The Animation Частные уроки 3 скачать торрент

Форум Название Автор Размер S L Добавлен
Хентай, порно и эротические мультфильмы ·· Tokubetsu Jugyou 3 SLG The Animation / Частные уроки 3 / Специальный Класс 3 SLG (Murakami Teruaki, Hills) (ep. 1-2 of 2) [cen] [2014 г., BDSM, Group sex, Oral sex, School, Rape, 2х DVD5] [jap] Galfimbul 23368099462.18 GB 2 0 1410089507

14:31

7-Сен-14

Хентай | С цензурой ·· Tokubetsu Jugyou 3 SLG The Animation / Частные уроки 3 / Специальный Класс 3 SLG (Hills) (ep. 1) [cen] [2014 г., BDSM, Oral sex, School, Rape, DVD5] [jap] Galfimbul 12192612641.14 GB 2 0 1394802567

16:09

14-Мар-14

Хентай, порно и эротические мультфильмы ·· Tokubetsu Jugyou 3 SLG The Animation / Частные уроки 3 (Murakami Teruaki) (ep. 1-2 of 2) [uncen] [2014, BDSM, bondage, rape, oral sex, anal sex, group sex, DVDRip] [jap / rus / eng / ger / chi] Galfimbul 897014940855 MB 2 0 1486130553

17:02

3-Фев-17

Хентай, порно и эротические мультфильмы ·· Tokubetsu Jugyou 3 SLG The Animation / Частные уроки 3 (ep. 1-2 of 2) (Murakami Teruaki) [uncen] [2014 г. School, Oral sex, Bdsm, rape, DVDRip] [jap / eng / chi / rus] Galfimbul 953268163909 MB 2 0 1472225517

18:31

26-Авг-16

Хентай | С цензурой ·· Tokubetsu Jugyou 3 SLG The Animation / Частные уроки 3 (ep. 1) (Milky) [cen] [2014 г. School, Oral sex, Bdsm, rape, DVDRip] [jap / eng / rus] Galfimbul 352589094336 MB 0 0 1390498948

20:42

23-Янв-14

Хентай | С цензурой ·· Tokubetsu Jugyou 3 SLG The Animation / Частные уроки 3 (ep. 1) (Milky) [cen] [2014 г. School, Oral sex, Bdsm, rape, DVDRip] [jap / eng / rus] Galfimbul 352567179336 MB 0 0 1389983440

21:30

17-Янв-14

Еще никто не оставлял запись к записи скачать торрент Tokubetsu Jugyou 3 SLG The Animation Частные уроки 3 . Будь первым!

!Обратная связь