Скачать порно через торрент Starless: 21st Century Nymphomaniacs. Starless UnionPeer.org бесплатно онлайн HD качество

Скачать новое порно 2015, 2014 новинки через торрент UnionPeer.org

Порно торрент бесплатно ЮнионПир.орг

Если у вас наблюдаются проблемы со скриншотами, переходом по ссылками, скачиванием торрентов - проблемы в блокировщике рекламы AdBlock. #хорошегоДня!


Статистика раздачи
Размер:  3.91 GB   |    Зарегистрирован:  3 года 7 месяцев   |    .torrent скачан:  469 раз   |   
Раздают:  3  
   
Загрузка...
 
Автор Сообщение

Galfimbul

avatar Galfimbul



スターレス | Starless: 21st Century Nymphomaniacs. | Starless | Беззвёздные


Год выпуска: 2012
Страна: Япония
Жанр: big tits, group sex, maids, masturbation, oral sex, toys
Продолжительность: >4 эп. по 20 мин.
Субтитры: Отсутствуют
Цензура: Присутствует
Студия: MediaBank Co., Ltd. | Studio 9 Maiami
Описание:
Sawatari Yukito was looking for a summer part time job, when by chance he came across an advertisement in a job search magazine for a position with really nice wages. Upon quickly contacting the employer and learning that the position had yet to be filled, he applied without delay. The job was as a live-in servant at a mansion.
His first day of work arrived. Upon arrival at the mansion deep in the mountains he was surprised by the size of the grounds and the palatial building itself… appropriate for the richest of the rich. The mansion’s beautiful mistress and her equally beautiful daughters came out to meet him. However, within that day his expectations turned to bewilderment and then despair.

By the time he learned the reason behind the high wages he was being offered for a simple handyman’s job, it was too late… The work that awaited him was that of a “handyman” in name only. He joined several other servants at the beck and call of the mansion’s mistress, tasked with pleasing every perverted whim of her odd family.
Servants both male and female were unable to escape the mansion, forced to continually take part the unending bizarre play of the family’s mad escapades. Will Yukito ever be able to escape the mansion alive, or….?!
Информационные ссылки: AniDB || MAL || World Art || ХентайМаг
Исходник: DVD-5
Видео: MPEG2 | NTSC | 16x9 | 720x480 | 8000 Kbps
Аудио JAP: AC-3 | 48000Hz | 192 Kbps | 2ch
01. Mansion of Immorality
02. Sensational Practice
03. Golden Lady
04. Feast Lewdness
General
Complete name : H:\VIDEO_TS\VTS_01_1.VOB
Format : MPEG-PS
File size : 1 024 MiB
Duration : 1mn 49s
Overall bit rate : 78.4 Mbps

Video
ID : 224 (0xE0)
Format : MPEG Video
Format version : Version 2
Format profile : Main@Main
Format settings, BVOP : Yes
Format settings, Matrix : Custom
Duration : 1mn 49s
Bit rate : 76.6 Mbps
Maximum bit rate : 8 000 Kbps
Width : 720 pixels
Height : 480 pixels
Display aspect ratio : 16:9
Frame rate : 29.970 fps
Standard : NTSC
Color space : YUV
Chroma subsampling : 4:2:0
Bit depth : 8 bits
Scan type : Interlaced
Scan order : Top Field First
Compression mode : Lossy
Bits/(Pixel*Frame) : 7.397
Stream size : 1 001 MiB (98%)

Audio
ID : 189 (0xBD)-128 (0x80)
Format : AC-3
Format/Info : Audio Coding 3
Mode extension : CM (complete main)
Muxing mode : DVD-Video
Duration : 1mn 49s
Bit rate mode : Constant
Bit rate : 192 Kbps
Channel(s) : 2 channels
Channel positions : Front: L R
Sampling rate : 48.0 KHz
Bit depth : 16 bits
Compression mode : Lossy
Stream size : 2.51 MiB (0%)


Исходник: DVD-5
Видео: MPEG2 | NTSC | 16x9 | 720x480 | 8000 Kbps
Аудио JAP: AC-3 | 48000Hz | 224 Kbps | 2ch
General
Complete name : L:\VIDEO_TS\VTS_01_1.VOB
Format : MPEG-PS
File size : 1 024 MiB
Duration : 1mn 9s
Overall bit rate mode : Variable
Overall bit rate : 123 Mbps

Video
ID : 224 (0xE0)
Format : MPEG Video
Format version : Version 2
Format profile : Main@Main
Format settings, BVOP : Yes
Format settings, Matrix : Default
Format settings, GOP : M=3, N=15
Duration : 1mn 9s
Bit rate mode : Variable
Bit rate : 121 Mbps
Maximum bit rate : 8 000 Kbps
Width : 720 pixels
Height : 480 pixels
Display aspect ratio : 16:9
Frame rate : 29.970 fps
Standard : NTSC
Color space : YUV
Chroma subsampling : 4:2:0
Bit depth : 8 bits
Scan type : Progressive
Compression mode : Lossy
Bits/(Pixel*Frame) : 11.656
Stream size : 1 002 MiB (98%)

Audio
ID : 189 (0xBD)-128 (0x80)
Format : AC-3
Format/Info : Audio Coding 3
Mode extension : CM (complete main)
Muxing mode : DVD-Video
Duration : 1mn 9s
Bit rate mode : Constant
Bit rate : 224 Kbps
Channel(s) : 2 channels
Channel positions : Front: L R
Sampling rate : 48.0 KHz
Bit depth : 16 bits
Compression mode : Lossy
Delay relative to video : -66ms
Stream size : 1.86 MiB (0%)


Исходник: DVD-5
Видео: MPEG2 | NTSC | 16x9 | 720x480 | 8000 Kbps
Аудио JAP: AC-3 | 48000Hz | 224 Kbps | 2ch
General
Complete name : L:\VIDEO_TS\VTS_01_1.VOB
Format : MPEG-PS
File size : 802 MiB
Duration : 9s 710ms
Overall bit rate mode : Variable
Overall bit rate : 692 Mbps

Video
ID : 224 (0xE0)
Format : MPEG Video
Format version : Version 2
Format profile : Main@Main
Format settings, BVOP : Yes
Format settings, Matrix : Default
Duration : 9s 710ms
Bit rate mode : Variable
Bit rate : 678 Mbps
Maximum bit rate : 8 000 Kbps
Width : 720 pixels
Height : 480 pixels
Display aspect ratio : 16:9
Frame rate : 29.970 fps
Standard : NTSC
Color space : YUV
Chroma subsampling : 4:2:0
Bit depth : 8 bits
Scan type : Progressive
Compression mode : Lossy
Bits/(Pixel*Frame) : 65.506
Stream size : 785 MiB (98%)

Audio
ID : 189 (0xBD)-128 (0x80)
Format : AC-3
Format/Info : Audio Coding 3
Mode extension : CM (complete main)
Muxing mode : DVD-Video
Duration : 9s 504ms
Bit rate mode : Constant
Bit rate : 224 Kbps
Channel(s) : 2 channels
Channel positions : Front: L R
Sampling rate : 48.0 KHz
Bit depth : 16 bits
Compression mode : Lossy
Stream size : 260 KiB (0%)


Исходник: DVD-5
Видео: MPEG2 | NTSC | 16x9 | 720x480 | 8000 Kbps
Аудио JAP: AC-3 | 48000Hz | 224 Kbps | 2ch
General
Complete name : L:\VIDEO_TS\VTS_01_1.VOB
Format : MPEG-PS
File size : 750 MiB
Duration : 10s 10ms
Overall bit rate mode : Variable
Overall bit rate : 628 Mbps

Video
ID : 224 (0xE0)
Format : MPEG Video
Format version : Version 2
Format profile : Main@Main
Format settings, BVOP : Yes
Format settings, Matrix : Default
Duration : 10s 10ms
Bit rate mode : Variable
Bit rate : 616 Mbps
Maximum bit rate : 8 000 Kbps
Width : 720 pixels
Height : 480 pixels
Display aspect ratio : 16:9
Frame rate : 29.970 fps
Standard : NTSC
Color space : YUV
Chroma subsampling : 4:2:0
Bit depth : 8 bits
Scan type : Progressive
Compression mode : Lossy
Bits/(Pixel*Frame) : 59.441
Stream size : 735 MiB (98%)

Audio
ID : 189 (0xBD)-128 (0x80)
Format : AC-3
Format/Info : Audio Coding 3
Mode extension : CM (complete main)
Muxing mode : DVD-Video
Duration : 9s 792ms
Bit rate mode : Constant
Bit rate : 224 Kbps
Channel(s) : 2 channels
Channel positions : Front: L R
Sampling rate : 48.0 KHz
Bit depth : 16 bits
Compression mode : Lossy
Stream size : 268 KiB (0%)


Трекер:  [ 10-Янв-2014 21:55 ]

  

Скачать .torrent

Размер .torrent файла 20 KB


Размер: 3.91 GB
Хэш (hash) релиза: 1d3bb0a7a7e186315dff803f6d18337811966c65

Еще никто не оставлял запись к записи скачать торрент Starless: 21st Century Nymphomaniacs. Starless . Будь первым!

!Обратная связь