Скачать через торрент Заморозка 2 Freezing Vibration бесплатно Аниме Все серии на русском torrent

Если у вас наблюдаются проблемы со скриншотами, переходом по ссылками, скачиванием торрентов - проблемы в блокировщике рекламы AdBlock. #хорошегоДня!


Статистика раздачи
Размер:  7.21 GB   |    Зарегистрирован:  3 года 8 месяцев   |    .torrent скачан:  124 раза   |   
Раздают:  1  
   
Загрузка...
 
Автор Сообщение

Galfimbul

avatar Galfimbul


Заморозка 2 / Freezing Vibration / Заморозка: Вибрация
Страна: Япония
Год выпуска: 2013 г.
Выпуск: c 04.10.2013 по 20.12.2013

Жанр: приключения, романтика, этти
Тип: ТВ (12 эп.), 25 мин.

Режиссёр: Ватанабэ Такаси
Автор оригинала: Им Дал Ён
Студия: A.C.G.T.
Краткое содержание: Десятое нашествие Нова показало, что защитники Земли держатся из последних сил. Пандор мало, отбор их сложен, а большинство все равно не могут выйти против «ангелов» один на один. В отчаянных условиях ряд мировых лидеров поддержали проект Скарлетт Охары – амбициозной ученицы профессора Гэнго. Желая превзойти учителя, Скарлетт тайно разработала процесс создания воительниц нового типа. И-Пандоры, в отличие от предшественниц, получают силу не от вживленных тканей Нова, а от прежде неизвестных стимуляторов. Если все сработает, можно поставить производство на поток и завалить врага тысячами дешевых солдат, но сначала технологию надо тщательно проверить!
Именно для этого на Аляске, где находится база проекта, организация Шевалье собирает сильнейших молодых Пандор со всех континентов. На Север отправляются неразлучные Сателла и Рана, аристократка Элизабет и непроницаемая Шифон, «богиня скорости» Кэсси и «феникс бури» француженка Шарль, а еще американка Роксана, прозванная «бессмертной». После учебных боев стало ясно, что даже гордая Амелия, лидер И-Пандор, не дотягивает до уровня старшекурсницы Генетической Академии. Но Охару это не смущает – она сразу заявила, что количество побьет качество. Но все ли в порядке с молодой ученой, и не выдает ли она желаемое за действительное? Ведь цена ошибки высока, Нова уже на пороге, а Сателлайзер все еще не прошла с милым Казуей обряд Посвящения!

© Hollow, World Art
Озвучивание:

двухголосое (муж./жен.) Nyasheek & NesTea (SHIZA Project) [Sample]

Работа над звуком и таймингом: Gigantic Guyver
Работа над переводом:

Fratelli & Xardos
перевод: Jenia aka Zub, сверка: Xardos

Релиз от:
Тип релиза: Без хардсаба
Качество: HDTVRip
Автор рипа: Hiryuu
Формат видео: MP4
Наличие линковки: Нет

Видео: x264 [10 bit], 1280x720, 3640 kbps, 23.976 fps

Аудио:

: AAC, 192 kbps, 48 kHz, 2 ch (в составе контейнера)

: AAC, 141 kbps, 48 kHz, 2 ch

Субтитры:

: ASS, SRT (внешним файлом)
Общее
Полное имя : D:\Releases\[SHIZA Project] Freezing Vibration TV2 [Nyasheek & NesTea] [HDTVRip]\[SHIZA Project] Freezing Vibration TV2 [01] [Nyasheek & NesTea].mp4
Формат : MPEG-4
Профиль формата : Base Media
Идентификатор кодека : isom
Размер файла : 673 Мбайт
Продолжительность : 23 м.
Режим общего битрейта : Переменный
Общий поток : 3978 Кбит/сек
Дата кодирования : UTC 2013-10-05 08:44:26
Дата пометки : UTC 2013-10-05 08:44:26
Программа кодирования : Yamb 2.1.0.0 [http://yamb.unite-video.com]

Видео
Идентификатор : 1
Формат : AVC
Формат/Информация : Advanced Video Codec
Профиль формата : High 10@L4.0
Параметр CABAC формата : Да
Параметр ReFrames формата : 9 кадров
Идентификатор кодека : avc1
Идентификатор кодека/Информация : Advanced Video Coding
Продолжительность : 23 м.
Битрейт : 3640 Кбит/сек
Максимальный битрейт : 32,7 Мбит/сек
Ширина : 1280 пикселей
Высота : 720 пикселей
Соотношение сторон : 16:9
Режим частоты кадров : Постоянный
Частота кадров : 23,976 кадра/сек
Цветовое пространство : YUV
Субдискретизация насыщенности : 4:2:0
Битовая глубина : 10 бит
Тип развёртки : Прогрессивная
Бит/(Пиксели*Кадры) : 0.165
Размер потока : 616 Мбайт (91%)
Заголовок : SHIZA-Project
Библиотека кодирования : x264 core 138 r2358kMod 9e941d1
Настройки программы : cabac=1 / ref=9 / deblock=1:-2:-2 / analyse=0x3:0x133 / me=umh / subme=10 / psy=1 / fade_compensate=0.75 / psy_rd=1.00:0.20 / mixed_ref=1 / me_range=32 / chroma_me=1 / trellis=2 / 8x8dct=1 / cqm=0 / deadzone=6,6 / fast_pskip=0 / chroma_qp_offset=-3 / threads=12 / lookahead_threads=1 / sliced_threads=0 / nr=0 / decimate=0 / interlaced=0 / bluray_compat=0 / constrained_intra=0 / bframes=8 / b_pyramid=2 / b_adapt=2 / b_bias=0 / direct=3 / weightb=1 / open_gop=0 / weightp=2 / keyint=250 / keyint_min=23 / scenecut=40 / intra_refresh=0 / rc_lookahead=60 / rc=crf / mbtree=1 / crf=19.0000 / qcomp=0.80 / qpmin=0 / qpmax=81 / qpstep=4 / ip_ratio=1.10 / aq=1:0.85
Язык : Japanese
Дата кодирования : UTC 2013-10-04 22:20:16
Дата пометки : UTC 2013-10-05 08:44:38
Коэффициенты матрицы : BT.709

Аудио #1
Идентификатор : 2
Формат : AAC
Формат/Информация : Advanced Audio Codec
Профиль формата : LC
Идентификатор кодека : 40
Продолжительность : 23 м.
Вид битрейта : Переменный
Битрейт : 192 Кбит/сек
Максимальный битрейт : 264 Кбит/сек
Каналы : 2 канала
Расположение каналов : Front: L R
Частота : 48,0 КГц
Метод сжатия : С потерями
Размер потока : 32,5 Мбайт (5%)
Заголовок : Nyasheek & NesTea
Язык : Russian
Дата кодирования : UTC 2013-10-05 08:44:37
Дата пометки : UTC 2013-10-05 08:44:38

Аудио #2
Идентификатор : 3
Формат : AAC
Формат/Информация : Advanced Audio Codec
Профиль формата : LC
Идентификатор кодека : 40
Продолжительность : 23 м.
Вид битрейта : Переменный
Битрейт : 141 Кбит/сек
Максимальный битрейт : 146 Кбит/сек
Каналы : 2 канала
Расположение каналов : Front: L R
Частота : 48,0 КГц
Метод сжатия : С потерями
Размер потока : 23,8 Мбайт (4%)
Заголовок : Original
Язык : Japanese
Дата кодирования : UTC 2013-10-05 08:44:38
Дата пометки : UTC 2013-10-05 08:44:38
File: D:\Releases\[SHIZA Project] Freezing Vibration TV2 [Nyasheek & NesTea] [HDTVRip]\[SHIZA Project] Freezing Vibration TV2 [01] [Nyasheek & NesTea].mp4
Duration: 00:23:40 (1420.01)
Track #1: video (SHIZA-Project)
lang: ja (2)
codc: avc1 -> H264/AVC (22)
reso: 1280x720 -> 16:9
fram: 23.976 fps
rate: 3640 kbps (3639.99)
dura: 00:23:40 (1420)
size: 0.00 B (0)
Track #2: audio (Nyasheek & NesTea)
lang: ru -> Russian (15)
codc: A_AAC/MPEG4/LC -> AAC (9)
chan: 2 -> Stereo
samp: 48000 Hz
rate: 192 kbps (192.04)
dura: 00:23:40 (1420.01)
size: 0.00 B (0)
Track #3: audio (Original)
lang: ja -> Japanese (2)
codc: A_AAC/MPEG4/LC -> AAC (9)
chan: 2 -> Stereo
samp: 48000 Hz
rate: 141 kbps (140.63)
dura: 00:23:40 (1419.99)
size: 0.00 B (0)
Sizes: (check sanity)
disk: 673.43 MB (706141902)
trac: 0.00 B (0) [based on track size]
bitr: 672.48 MB (705145885) [based on bitrate]
tdif: 673.43 MB (706141902) 100.00%
bdif: 972.67 KB (996016) 0.14%
01. Возвращение Пандоры
02. Изменённая Пандора
03. Четвёртая сущность
04. Товарищ
05. Честь обязывает
06. Марионетки
07. Очарованная
08. Восстание
09. Предатель
10. Истинная Пандора
11. Вторжение нов
12. Столб света



Трекер:  [ 10-Янв-2014 18:24 ]

  

Скачать .torrent

Размер .torrent файла 22 KB


Размер: 7.21 GB
Хэш (hash) релиза: 4aab763d42fc5094628b93ea52fabd0fe1f1e188
Подписка на обновления:

Еще никто не оставлял запись к записи скачать торрент Заморозка 2 Freezing Vibration . Будь первым!

!Обратная связь