Скачать через торрент музыку бесплатно без регистрации torrent

Если у вас наблюдаются проблемы со скриншотами, переходом по ссылками, скачиванием торрентов - проблемы в блокировщике рекламы AdBlock. #хорошегоДня!


Статистика раздачи
Размер:  226 MB   |    Зарегистрирован:  3 года 8 месяцев   |    .torrent скачан:  170 раз   |   
Раздают:  1  
   
Загрузка...
 
Автор Сообщение

Galfimbul

avatar Galfimbul


Milcho Leviev & Anatoly Vapirov / Concert By The Black Sea

Жанр: Contemporary Jazz
Носитель: CD
Страна-производитель диска: Bulgaria
Год издания: 1994
Издатель (лейбл): AVA Records
Номер по каталогу: 005
Аудиокодек: FLAC (*.flac)
Тип рипа: image+.cue
Битрейт аудио: lossless
Продолжительность: 49:31
Источник (релизер): CD
Наличие сканов в содержимом раздачи: нет
Треклист:
1. In A Sentimental Mood 7:23
2. Lullaby Of Birdland 8:18
3. Sugar 4:06
4. What''s New 7:40
5. What Is This Thing Called Love 5:05
6. Angel Eyes 6:12
7. Summertime 11:22
Exact Audio Copy V1.0 beta 2 from 29. April 2011

EAC extraction logfile from 10. January 2014, 13:40

Milcho Leviev & Anatoly Vapirov / Concert by the Black Sea

Used drive : Optiarc DVD RW AD-7170A Adapter: 0 ID: 0

Read mode : SecureUtilize accurate stream : YesDefeat audio cache : YesMake use of C2 pointers : No

Read offset correction : 48Overread into Lead-In and Lead-Out : NoFill up missing offset samples with silence : YesDelete leading and trailing silent blocks : NoNull samples used in CRC calculations : YesUsed interface : Native Win32 interface for Win NT & 2000

Used output format : User Defined EncoderSelected bitrate : 320 kBit/sQuality : HighAdd ID3 tag : NoCommand line compressor : C:\Program Files\Exact Audio Copy\Flac\flac.exeAdditional command line options : -V -8 -T "Date=%year%" -T "Genre=%genre%" %source%

TOC of the extracted CD

Track | Start | Length | Start sector | End sector --------------------------------------------------------- 1 | 0:00.00 | 7:14.62 | 0 | 32611 2 | 7:14.62 | 8:17.00 | 32612 | 69886 3 | 15:31.62 | 3:59.28 | 69887 | 87839 4 | 19:31.15 | 7:32.30 | 87840 | 121769 5 | 27:03.45 | 5:07.10 | 121770 | 144804 6 | 32:10.55 | 6:05.65 | 144805 | 172244 7 | 38:16.45 | 11:15.30 | 172245 | 222899

Range status and errors

Selected range

Filename K:\ЕАС\Milcho Leviev & Anatoly Vapirov - Concert by the Black Sea.wav

Peak level 99.4 % Extraction speed 1.9 X Range quality 100.0 % Test CRC 159739A6 Copy CRC 159739A6 Copy OK

No errors occurred

AccurateRip summary

Track 1 accurately ripped (confidence 1) [9B961040] (AR v1)Track 2 accurately ripped (confidence 1) [4A215B2D] (AR v1)Track 3 accurately ripped (confidence 1) [00CA4D0D] (AR v1)Track 4 accurately ripped (confidence 1) [3098D10C] (AR v1)Track 5 accurately ripped (confidence 1) [1FE52CB4] (AR v1)Track 6 accurately ripped (confidence 1) [047E8D31] (AR v1)Track 7 accurately ripped (confidence 1) [D67345E2] (AR v1)

All tracks accurately ripped

End of status report

==== Log checksum F1123EBF15127CF34E8CA3C9A4ABAC6167BE7E7BB211CC016B56BE0192DB90F1 ====
REM GENRE JazzREM DATE 1994REM DISCID 5C0B9C07REM COMMENT "ExactAudioCopy v1.0b2"PERFORMER "Milcho Leviev & Anatoly Vapirov"TITLE "Concert by the Black Sea"FILE "Milcho Leviev & Anatoly Vapirov - Concert by the Black Sea.flac" WAVE TRACK 01 AUDIO TITLE "In a Sentimental Mood" PERFORMER "Milcho Leviev & Anatoly Vapirov" INDEX 01 00:00:00 TRACK 02 AUDIO TITLE "Lullaby of Birdland" PERFORMER "Milcho Leviev & Anatoly Vapirov" INDEX 00 07:12:05 INDEX 01 07:14:62 TRACK 03 AUDIO TITLE "Sugar" PERFORMER "Milcho Leviev & Anatoly Vapirov" INDEX 00 15:29:25 INDEX 01 15:31:62 TRACK 04 AUDIO TITLE "What''s New?" PERFORMER "Milcho Leviev & Anatoly Vapirov" INDEX 00 19:28:60 INDEX 01 19:31:15 TRACK 05 AUDIO TITLE "What is this thing called Love?" PERFORMER "Milcho Leviev & Anatoly Vapirov" INDEX 00 27:02:37 INDEX 01 27:03:45 TRACK 06 AUDIO TITLE "Angel Eyes" PERFORMER "Milcho Leviev & Anatoly Vapirov" INDEX 00 32:09:42 INDEX 01 32:10:55 TRACK 07 AUDIO TITLE "Summertime" PERFORMER "Milcho Leviev & Anatoly Vapirov" INDEX 00 38:15:17 INDEX 01 38:16:45
Доп. информация: Recorded live in Varna, Bulgaria, 19.10.1993
Piano – Milcho Leviev
Tenor Saxophone – Anatoly Vapirov


Трекер:  [ 10-Янв-2014 17:06 ]

  

Скачать .torrent

Размер .torrent файла 18 KB


Размер: 226 MB
Хэш (hash) релиза: 4ef75ad1b25466969ee2e7d7615c7c41688b966f

Еще никто не оставлял запись к записи скачать торрент . Будь первым!

!Обратная связь