Скачать через торрент музыку бесплатно без регистрации torrent

Если у вас наблюдаются проблемы со скриншотами, переходом по ссылками, скачиванием торрентов - проблемы в блокировщике рекламы AdBlock. #хорошегоДня!


Статистика раздачи
Размер:  221 MB   |    Зарегистрирован:  3 года 10 месяцев   |    .torrent скачан:  157 раз   |   
Раздают:  2  
   
Загрузка...
 
Автор Сообщение

Galfimbul

avatar Galfimbul


Vapirov Project / East West

Жанр: Free Jazz, Contemporary Jazz, Free Improvisation
Носитель: CD
Страна-производитель диска: Bulgaria
Год издания: 1992
Издатель (лейбл): AVA Records
Номер по каталогу: 0002
Аудиокодек: FLAC (*.flac)
Тип рипа: image+.cue
Битрейт аудио: lossless
Продолжительность: 46:48
Источник (релизер): CD
Наличие сканов в содержимом раздачи: нет
Треклист:
1 Path Across The Valley 3:00
2 Black Pepper 2:54
3 A Stairway To The Attic 3:51
4 The Old Oak 3:54
5 Bohemian Canyon 2:28
6 Triada 4:14
7 Aria With A Continuation 7:13
8 Stepping Out Of The Ring 4:13
9 Longoza Trio 2:08
10 Memento 4:21
11 Green Hill''s Nostalgy 7:26
Exact Audio Copy V1.0 beta 2 from 29. April 2011

EAC extraction logfile from 10. January 2014, 14:47

Vapirov Project / East West

Used drive : Optiarc DVD RW AD-7170A Adapter: 0 ID: 0

Read mode : SecureUtilize accurate stream : YesDefeat audio cache : YesMake use of C2 pointers : No

Read offset correction : 48Overread into Lead-In and Lead-Out : NoFill up missing offset samples with silence : YesDelete leading and trailing silent blocks : NoNull samples used in CRC calculations : YesUsed interface : Native Win32 interface for Win NT & 2000

Used output format : User Defined EncoderSelected bitrate : 320 kBit/sQuality : HighAdd ID3 tag : NoCommand line compressor : C:\Program Files\Exact Audio Copy\Flac\flac.exeAdditional command line options : -V -8 -T "Date=%year%" -T "Genre=%genre%" %source%

TOC of the extracted CD

Track | Start | Length | Start sector | End sector --------------------------------------------------------- 1 | 0:00.00 | 3:42.50 | 0 | 16699 2 | 3:42.50 | 2:56.32 | 16700 | 29931 3 | 6:39.07 | 3:53.73 | 29932 | 47479 4 | 10:33.05 | 3:58.17 | 47480 | 65346 5 | 14:31.22 | 2:32.00 | 65347 | 76746 6 | 17:03.22 | 4:16.63 | 76747 | 96009 7 | 21:20.10 | 7:13.02 | 96010 | 128486 8 | 28:33.12 | 4:14.73 | 128487 | 147609 9 | 32:48.10 | 2:11.02 | 147610 | 157436 10 | 34:59.12 | 4:23.05 | 157437 | 177166 11 | 39:22.17 | 7:26.33 | 177167 | 210649

Range status and errors

Selected range

Filename K:\ЕАС\Vapirov Project - East West.wav

Peak level 84.8 % Extraction speed 1.9 X Range quality 100.0 % Test CRC F6F5846B Copy CRC F6F5846B Copy OK

No errors occurred

AccurateRip summary

Track 1 not present in databaseTrack 2 not present in databaseTrack 3 not present in databaseTrack 4 not present in databaseTrack 5 not present in databaseTrack 6 not present in databaseTrack 7 not present in databaseTrack 8 not present in databaseTrack 9 not present in databaseTrack 10 not present in databaseTrack 11 not present in database

None of the tracks are present in the AccurateRip database

End of status report

==== Log checksum 8A36D7F0435FD4C78C74B9E4CCA5E32413FF79C13536AEAADBCAF3CC538AAEA0 ====
REM GENRE JazzREM DATE 1992REM DISCID 760AF80BREM COMMENT "ExactAudioCopy v1.0b2"PERFORMER "Vapirov Project "TITLE "East West"FILE "Vapirov Project - East West.flac" WAVE TRACK 01 AUDIO TITLE "Path Across The Valley " PERFORMER "Vapirov Project " INDEX 01 00:00:00 TRACK 02 AUDIO TITLE "Black Pepper " PERFORMER "Vapirov Project " INDEX 00 03:40:60 INDEX 01 03:42:50 TRACK 03 AUDIO TITLE "A Stairway To The Attic" PERFORMER "Vapirov Project " INDEX 00 06:36:72 INDEX 01 06:39:07 TRACK 04 AUDIO TITLE "The Old Oak" PERFORMER "Vapirov Project " INDEX 00 10:30:37 INDEX 01 10:33:05 TRACK 05 AUDIO TITLE "Bohemian Canyon" PERFORMER "Vapirov Project " INDEX 00 14:27:35 INDEX 01 14:31:22 TRACK 06 AUDIO TITLE "Triada" PERFORMER "Vapirov Project " INDEX 00 17:00:17 INDEX 01 17:03:22 TRACK 07 AUDIO TITLE "Aria With A Continuation" PERFORMER "Vapirov Project " INDEX 00 21:17:40 INDEX 01 21:20:10 TRACK 08 AUDIO TITLE "Stepping Out Of The Ring" PERFORMER "Vapirov Project " INDEX 01 28:33:12 TRACK 09 AUDIO TITLE "Longoza Trio" PERFORMER "Vapirov Project " INDEX 00 32:46:40 INDEX 01 32:48:10 TRACK 10 AUDIO TITLE "Memento" PERFORMER "Vapirov Project " INDEX 00 34:56:37 INDEX 01 34:59:12 TRACK 11 AUDIO TITLE "Green Hill''s Nostalgy" PERFORMER "Vapirov Project " INDEX 00 39:20:35 INDEX 01 39:22:17
Доп. информация: Recorded at NDK Studio, Sofia, Bulgaria, 18-19 08 1992
Alto Saxophone – Vytas Labutis
Drums – Giadas Laurinavichius
Guitar – Rudolf Dasek
Tenor Saxophone, Composed By, Producer – Anatoly Vapirov
Trombone – Christian Muthspiel
Vocals – Yildiz Ibrahimova


Трекер:  [ 10-Янв-2014 17:06 ]

  

Скачать .torrent

Размер .torrent файла 18 KB


Размер: 221 MB
Хэш (hash) релиза: 30262fae4d8efcd3fcb25c91bfee40934fde76cc

Еще никто не оставлял запись к записи скачать торрент . Будь первым!

!Обратная связь