Скачать через торрент музыку The Tahitian Choir - Rapa Iti - бесплатно без регистрации torrent

Если у вас наблюдаются проблемы со скриншотами, переходом по ссылками, скачиванием торрентов - проблемы в блокировщике рекламы AdBlock. #хорошегоДня!


Статистика раздачи
Размер:  284 MB   |    Зарегистрирован:  3 года 7 месяцев   |    .torrent скачан:  160 раз   |   
Раздают:  1  
   
Загрузка...
 
Автор Сообщение

Galfimbul

avatar Galfimbul


The Tahitian Choir / Rapa Iti

Жанр: Ethnic
Страна-производитель диска: France
Год издания диска: (1992) 2004
Издатель (лейбл): Solitude Records
Номер по каталогу: TC S - 1204-2
Страна: Tahiti
Аудиокодек: FLAC
Тип рипа: tracks+.cue
Битрейт аудио: lossless
Продолжительность: 0:54:51.
Источник: собственный рип
Наличие сканов в содержимом раздачи: да
Треклист:
01. Iaorana (bonus track) 3:42
02. Oparo E Oparo E 5:41
03. Morotiri Nei 2:03
04. Himene Tatou 3:58
05. Tarema 3:48
06. El Reka E 3:57
07. Ratou Ki Ota 2:34
08. Te Vahine Ororagni 3:39
09. Te Matamua 2:13
10. I Te Fenua 2:57
11. Tamaki A te Mau Ariki 4:01
12. Oparo 2:09
13. Tevaitau 3:13
14. Va Hiti 3:30
15. Tau Matamua 3:10
16. Te parau O Eri Rama 4:09
17. Data Track
Exact Audio Copy V1.0 beta 3 from 29. August 2011

Отчёт EAC об извлечении, выполненном 25. декабря 2013, 20:50

The Tahitian Choir / Rapa Iti

Дисковод: ASUS DRW-1814BLT Adapter: 4 ID: 0

Режим чтения : ДостоверностьИспользование точного потока : ДаОтключение кэша аудио : ДаИспользование указателей C2 : Нет

Коррекция смещения при чтении : 6Способность читать области Lead-in и Lead-out : НетЗаполнение пропущенных сэмплов тишиной : ДаУдаление блоков с тишиной в начале и конце : НетПри вычислениях CRC использовались нулевые сэмплы : ДаИнтерфейс : Встроенный Win32-интерфейс для Win NT/2000Обработка зазоров : Добавлено к предыдущему треку

Выходной формат : Пользовательский кодировщикВыбранный битрейт : 128 kBit/sКачество : ВысокийДобавление ID3-тега : НетУтилита сжатия : C:\Program Files\Exact Audio Copy\Flac\flac.exeДополнительные параметры : -V -8 -T "Genre=%genre%" -T "Artist=%artist%" -T "Title=%title%" -T "Album=%albumtitle%" -T "Date=%year%" -T "Tracknumber=%tracknr%" -T "Comment=EAC1.0b2 FLAC -8" %source%

TOC извлечённого CD

Трек | Старт | Длительность | Начальный сектор | Конечный сектор --------------------------------------------------------------------- 1 | 0:00.00 | 3:42.49 | 0 | 16698 2 | 3:42.49 | 5:41.04 | 16699 | 42277 3 | 9:23.53 | 2:03.10 | 42278 | 51512 4 | 11:26.63 | 3:58.66 | 51513 | 69428 5 | 15:25.54 | 3:48.36 | 69429 | 86564 6 | 19:14.15 | 3:57.34 | 86565 | 104373 7 | 23:11.49 | 2:34.04 | 104374 | 115927 8 | 25:45.53 | 3:39.23 | 115928 | 132375 9 | 29:25.01 | 2:13.05 | 132376 | 142355 10 | 31:38.06 | 2:57.51 | 142356 | 155681 11 | 34:35.57 | 4:01.34 | 155682 | 173790 12 | 38:37.16 | 2:09.57 | 173791 | 183522 13 | 40:46.73 | 3:13.49 | 183523 | 198046 14 | 44:00.47 | 3:30.69 | 198047 | 213865 15 | 47:31.41 | 3:10.36 | 213866 | 228151 16 | 50:42.02 | 4:09.27 | 228152 | 246853 17 | 57:23.29 | 2:37.04 | 258254 | 270032

Трек 1

Имя файла R:\Раздача 8\The Tahitian Choir - (1992) 2004 - Rapa Iti\01 Iaorana (bonus track).wav

Длина предзазора 0:00:02.00

Пиковый уровень 81.8 % Скорость извлечения 4.2 X Качество трека 100.0 % CRC теста 57E7C11B CRC копии 57E7C11B Копирование... OK

Трек 2

Имя файла R:\Раздача 8\The Tahitian Choir - (1992) 2004 - Rapa Iti\02 Oparo E Oparo E.wav

Длина предзазора 0:00:02.00

Пиковый уровень 99.9 % Скорость извлечения 5.0 X Качество трека 100.0 % CRC теста 413C05A8 CRC копии 413C05A8 Копирование... OK

Трек 3

Имя файла R:\Раздача 8\The Tahitian Choir - (1992) 2004 - Rapa Iti\03 Morotiri Nei.wav

Длина предзазора 0:00:02.00

Пиковый уровень 57.9 % Скорость извлечения 3.8 X Качество трека 99.9 % CRC теста E4A87559 CRC копии E4A87559 Копирование... OK

Трек 4

Имя файла R:\Раздача 8\The Tahitian Choir - (1992) 2004 - Rapa Iti\04 Himene Tatou.wav

Длина предзазора 0:00:02.00

Пиковый уровень 92.2 % Скорость извлечения 5.6 X Качество трека 100.0 % CRC теста 6183CFDF CRC копии 6183CFDF Копирование... OK

Трек 5

Имя файла R:\Раздача 8\The Tahitian Choir - (1992) 2004 - Rapa Iti\05 Tarema.wav

Длина предзазора 0:00:02.00

Пиковый уровень 69.1 % Скорость извлечения 5.9 X Качество трека 100.0 % CRC теста 11C8B46F CRC копии 11C8B46F Копирование... OK

Трек 6

Имя файла R:\Раздача 8\The Tahitian Choir - (1992) 2004 - Rapa Iti\06 El Reka E.wav

Длина предзазора 0:00:01.73

Пиковый уровень 98.9 % Скорость извлечения 6.2 X Качество трека 100.0 % CRC теста 566DB0CC CRC копии 566DB0CC Копирование... OK

Трек 7

Имя файла R:\Раздача 8\The Tahitian Choir - (1992) 2004 - Rapa Iti\07 Ratou Ki Ota.wav

Длина предзазора 0:00:02.00

Пиковый уровень 73.5 % Скорость извлечения 5.0 X Качество трека 99.9 % CRC теста CCE12896 CRC копии CCE12896 Копирование... OK

Трек 8

Имя файла R:\Раздача 8\The Tahitian Choir - (1992) 2004 - Rapa Iti\08 Te Vahine Ororagni.wav

Длина предзазора 0:00:02.00

Пиковый уровень 66.1 % Скорость извлечения 6.6 X Качество трека 100.0 % CRC теста 6E0D919C CRC копии 6E0D919C Копирование... OK

Трек 9

Имя файла R:\Раздача 8\The Tahitian Choir - (1992) 2004 - Rapa Iti\09 Te Matamua.wav

Длина предзазора 0:00:01.73

Пиковый уровень 75.2 % Скорость извлечения 6.2 X Качество трека 100.0 % CRC теста 3328763D CRC копии 3328763D Копирование... OK

Трек 10

Имя файла R:\Раздача 8\The Tahitian Choir - (1992) 2004 - Rapa Iti\10 I Te Fenua.wav

Длина предзазора 0:00:02.00

Пиковый уровень 64.3 % Скорость извлечения 6.8 X Качество трека 100.0 % CRC теста DE3279F4 CRC копии DE3279F4 Копирование... OK

Трек 11

Имя файла R:\Раздача 8\The Tahitian Choir - (1992) 2004 - Rapa Iti\11 Tamaki A te Mau Ariki.wav

Длина предзазора 0:00:02.00

Пиковый уровень 68.7 % Скорость извлечения 7.3 X Качество трека 100.0 % CRC теста 22472248 CRC копии 22472248 Копирование... OK

Трек 12

Имя файла R:\Раздача 8\The Tahitian Choir - (1992) 2004 - Rapa Iti\12 Oparo.wav

Длина предзазора 0:00:01.72

Пиковый уровень 85.3 % Скорость извлечения 6.7 X Качество трека 100.0 % CRC теста 9AC00AB6 CRC копии 9AC00AB6 Копирование... OK

Трек 13

Имя файла R:\Раздача 8\The Tahitian Choir - (1992) 2004 - Rapa Iti\13 Tevaitau.wav

Длина предзазора 0:00:01.72

Пиковый уровень 40.9 % Скорость извлечения 7.4 X Качество трека 100.0 % CRC теста FC5E9A75 CRC копии FC5E9A75 Копирование... OK

Трек 14

Имя файла R:\Раздача 8\The Tahitian Choir - (1992) 2004 - Rapa Iti\14 Va Hiti.wav

Длина предзазора 0:00:01.73

Пиковый уровень 45.7 % Скорость извлечения 7.8 X Качество трека 100.0 % CRC теста A35A07F0 CRC копии A35A07F0 Копирование... OK

Трек 15

Имя файла R:\Раздача 8\The Tahitian Choir - (1992) 2004 - Rapa Iti\15 Tau Matamua.wav

Длина предзазора 0:00:01.72

Пиковый уровень 45.0 % Скорость извлечения 7.8 X Качество трека 100.0 % CRC теста 6E3049F0 CRC копии 6E3049F0 Копирование... OK

Трек 16

Имя файла R:\Раздача 8\The Tahitian Choir - (1992) 2004 - Rapa Iti\16 Te parau O Eri Rama.wav

Длина предзазора 0:00:01.72

Пиковый уровень 56.6 % Скорость извлечения 7.3 X Качество трека 99.9 % CRC теста 1663629F CRC копии 1663629F Копирование... OK

Ошибок не произошло

Конец отчёта

==== Контрольная сумма отчёта C377908CC41F9A0DA91B2F541BA8122000D75443745C753B31F66F096D711B6A ====
[pre]REM GENRE Folk
REM DATE 2004
REM DISCID FB0E1011
REM COMMENT "ExactAudioCopy v1.0b3"
PERFORMER "The Tahitian Choir"
TITLE "Rapa Iti"
FILE "01 Iaorana (bonus track).wav" WAVE
TRACK 01 AUDIO
TITLE "Iaorana (bonus track)"
PERFORMER "The Tahitian Choir"
INDEX 01 00:00:00
TRACK 02 AUDIO
TITLE "Oparo E Oparo E"
PERFORMER "The Tahitian Choir"
INDEX 00 03:40:49
FILE "02 Oparo E Oparo E.wav" WAVE
INDEX 01 00:00:00
TRACK 03 AUDIO
TITLE "Morotiri Nei"
PERFORMER "The Tahitian Choir"
INDEX 00 05:39:04
FILE "03 Morotiri Nei.wav" WAVE
INDEX 01 00:00:00
TRACK 04 AUDIO
TITLE "Himene Tatou"
PERFORMER "The Tahitian Choir"
INDEX 00 02:01:10
FILE "04 Himene Tatou.wav" WAVE
INDEX 01 00:00:00
TRACK 05 AUDIO
TITLE "Tarema"
PERFORMER "The Tahitian Choir"
INDEX 00 03:56:66
FILE "05 Tarema.wav" WAVE
INDEX 01 00:00:00
TRACK 06 AUDIO
TITLE "El Reka E"
PERFORMER "The Tahitian Choir"
INDEX 00 03:46:38
FILE "06 El Reka E.wav" WAVE
INDEX 01 00:00:00
TRACK 07 AUDIO
TITLE "Ratou Ki Ota"
PERFORMER "The Tahitian Choir"
INDEX 00 03:55:34
FILE "07 Ratou Ki Ota.wav" WAVE
INDEX 01 00:00:00
TRACK 08 AUDIO
TITLE "Te Vahine Ororagni"
PERFORMER "The Tahitian Choir"
INDEX 00 02:32:04
FILE "08 Te Vahine Ororagni.wav" WAVE
INDEX 01 00:00:00
TRACK 09 AUDIO
TITLE "Te Matamua"
PERFORMER "The Tahitian Choir"
INDEX 00 03:37:25
FILE "09 Te Matamua.wav" WAVE
INDEX 01 00:00:00
TRACK 10 AUDIO
TITLE "I Te Fenua"
PERFORMER "The Tahitian Choir"
INDEX 00 02:11:05
FILE "10 I Te Fenua.wav" WAVE
INDEX 01 00:00:00
TRACK 11 AUDIO
TITLE "Tamaki A te Mau Ariki"
PERFORMER "The Tahitian Choir"
INDEX 00 02:55:51
FILE "11 Tamaki A te Mau Ariki.wav" WAVE
INDEX 01 00:00:00
TRACK 12 AUDIO
TITLE "Oparo"
PERFORMER "The Tahitian Choir"
INDEX 00 03:59:37
FILE "12 Oparo.wav" WAVE
INDEX 01 00:00:00
TRACK 13 AUDIO
TITLE "Tevaitau"
PERFORMER "The Tahitian Choir"
INDEX 00 02:07:60
FILE "13 Tevaitau.wav" WAVE
INDEX 01 00:00:00
TRACK 14 AUDIO
TITLE "Va Hiti"
PERFORMER "The Tahitian Choir"
INDEX 00 03:11:51
FILE "14 Va Hiti.wav" WAVE
INDEX 01 00:00:00
TRACK 15 AUDIO
TITLE "Tau Matamua"
PERFORMER "The Tahitian Choir"
INDEX 00 03:28:72
FILE "15 Tau Matamua.wav" WAVE
INDEX 01 00:00:00
TRACK 16 AUDIO
TITLE "Te parau O Eri Rama"
PERFORMER "The Tahitian Choir"
INDEX 00 03:08:39
FILE "16 Te parau O Eri Rama.wav" WAVE
INDEX 01 00:00:00
REM GENRE FolkREM DATE 2004REM DISCID FB0E1011REM COMMENT "ExactAudioCopy v1.0b3"PERFORMER "The Tahitian Choir"TITLE "Rapa Iti"FILE "01 Iaorana (bonus track).wav" WAVE TRACK 01 AUDIO TITLE "Iaorana (bonus track)" PERFORMER "The Tahitian Choir" INDEX 01 00:00:00 TRACK 02 AUDIO TITLE "Oparo E Oparo E" PERFORMER "The Tahitian Choir" INDEX 00 03:40:49FILE "02 Oparo E Oparo E.wav" WAVE INDEX 01 00:00:00 TRACK 03 AUDIO TITLE "Morotiri Nei" PERFORMER "The Tahitian Choir" INDEX 00 05:39:04FILE "03 Morotiri Nei.wav" WAVE INDEX 01 00:00:00 TRACK 04 AUDIO TITLE "Himene Tatou" PERFORMER "The Tahitian Choir" INDEX 00 02:01:10FILE "04 Himene Tatou.wav" WAVE INDEX 01 00:00:00 TRACK 05 AUDIO TITLE "Tarema" PERFORMER "The Tahitian Choir" INDEX 00 03:56:66FILE "05 Tarema.wav" WAVE INDEX 01 00:00:00 TRACK 06 AUDIO TITLE "El Reka E" PERFORMER "The Tahitian Choir" INDEX 00 03:46:38FILE "06 El Reka E.wav" WAVE INDEX 01 00:00:00 TRACK 07 AUDIO TITLE "Ratou Ki Ota" PERFORMER "The Tahitian Choir" INDEX 00 03:55:34FILE "07 Ratou Ki Ota.wav" WAVE INDEX 01 00:00:00 TRACK 08 AUDIO TITLE "Te Vahine Ororagni" PERFORMER "The Tahitian Choir" INDEX 00 02:32:04FILE "08 Te Vahine Ororagni.wav" WAVE INDEX 01 00:00:00 TRACK 09 AUDIO TITLE "Te Matamua" PERFORMER "The Tahitian Choir" INDEX 00 03:37:25FILE "09 Te Matamua.wav" WAVE INDEX 01 00:00:00 TRACK 10 AUDIO TITLE "I Te Fenua" PERFORMER "The Tahitian Choir" INDEX 00 02:11:05FILE "10 I Te Fenua.wav" WAVE INDEX 01 00:00:00 TRACK 11 AUDIO TITLE "Tamaki A te Mau Ariki" PERFORMER "The Tahitian Choir" INDEX 00 02:55:51FILE "11 Tamaki A te Mau Ariki.wav" WAVE INDEX 01 00:00:00 TRACK 12 AUDIO TITLE "Oparo" PERFORMER "The Tahitian Choir" INDEX 00 03:59:37FILE "12 Oparo.wav" WAVE INDEX 01 00:00:00 TRACK 13 AUDIO TITLE "Tevaitau" PERFORMER "The Tahitian Choir" INDEX 00 02:07:60FILE "13 Tevaitau.wav" WAVE INDEX 01 00:00:00 TRACK 14 AUDIO TITLE "Va Hiti" PERFORMER "The Tahitian Choir" INDEX 00 03:11:51FILE "14 Va Hiti.wav" WAVE INDEX 01 00:00:00 TRACK 15 AUDIO TITLE "Tau Matamua" PERFORMER "The Tahitian Choir" INDEX 00 03:28:72FILE "15 Tau Matamua.wav" WAVE INDEX 01 00:00:00 TRACK 16 AUDIO TITLE "Te parau O Eri Rama" PERFORMER "The Tahitian Choir" INDEX 00 03:08:39FILE "16 Te parau O Eri Rama.wav" WAVE INDEX 01 00:00:00 TRACK 17 MODEx/2xxx TITLE "Data Track" PERFORMER "The Tahitian Choir" INDEX 00 04:09:27
Файл Rapa Iti.cue - рабочий CUE для записи CD.Файл Rapa Iti (no edition).cue - оригинальный CUE, предназначенный только для проверки.В папке Extra находится мультимедийная часть данного CD.
ОбщееПолное имя : CHOIR.WMVФормат : Windows MediaРазмер файла : 18,1 МбайтПродолжительность : 3 м. 46 с.Режим общего битрейта : ПостоянныйОбщий поток : 672 Кбит/секМаксимальный общий битрейт : 706 Кбит/секНазвание фильма : Tahitian ChoirДата кодирования : UTC 2004-02-13 22:10:31.484Правообладатель : ©

ВидеоИдентификатор : 2Формат : WMV2Идентификатор кодека : WMV2Идентификатор кодека/Информация : Windows Media Video 8Описание кодека : Windows Media Video V8Продолжительность : 3 м. 46 с.Вид битрейта : ПостоянныйБитрейт : 632 Кбит/секШирина : 320 пикселейВысота : 240 пикселейСоотношение сторон : 4:3Частота кадров : 29,970 кадров/секРазрешение : 24 битБит/(Пиксели*Кадры) : 0.275Размер потока : 17,0 Мбайт (94%)Язык : English (US)

АудиоИдентификатор : 1Формат : WMAВерсия формата : Version 2Идентификатор кодека : 161Идентификатор кодека/Информация : Windows Media AudioОписание кодека : Windows Media Audio 9 - 64 kbps, 44 kHz, stereo (A/V) 1-pass CBRПродолжительность : 3 м. 46 с.Вид битрейта : ПостоянныйБитрейт : 64,0 Кбит/секКаналы : 2 каналаЧастота : 44,1 КГцРазрешение : 16 битРазмер потока : 1,73 Мбайт (10%)Язык : English (US)

Меню


Трекер:  [ 09-Янв-2014 19:26 ]

  

Скачать .torrent

Размер .torrent файла 13 KB


Размер: 284 MB
Хэш (hash) релиза: 4ae2445de1ae01d41517ed5781dd619872cf25f6

Еще никто не оставлял запись к записи скачать торрент The Tahitian Choir - Rapa Iti - . Будь первым!

!Обратная связь