Скачать через торрент музыку бесплатно без регистрации torrent

Если у вас наблюдаются проблемы со скриншотами, переходом по ссылками, скачиванием торрентов - проблемы в блокировщике рекламы AdBlock. #хорошегоДня!


Статистика раздачи
Размер:  386 MB   |    Зарегистрирован:  3 года 10 месяцев   |    .torrent скачан:  103 раза   |   
Раздают:  1  
   
Загрузка...
 
Автор Сообщение

Galfimbul

avatar Galfimbul


♦ Igor Homa (Jrop Xoмa) - Medicus ♦

Жанр: Post-Bop
Носитель: CD
Страна-производитель диска: Ukraine
Год издания: 2009
Издатель (лейбл): МА "Наш Формат"
Аудиокодек: WavPack (*.wv)
Тип рипа: image+.cue
Битрейт аудио: lossless
Продолжительность: 01:10:31
Источник (релизер): NetLab
Наличие сканов в содержимом раздачи: да

Треклист:

01. Nineteenager''s Riff [04:54]
02. Полюшко-поле [07:36]
03. Whisper Not [05:05]
04. Tintarella di Luna [02:38]
05. Well, You Needn''t [05:11]
06. Sombrero Sam [05:35]
07. Forest Flower [06:25]
08. A Man and a Woman [02:32]
09. Afternoon Walk [05:08]
10. Половецькі танці [04:49]
11. Carnival [04:59]
12. Живий голос Ігоря Хоми [02:14]
13. Summertime [04:21]
14. Живий голос Ігоря Хоми [01:54]
15. Stompin'' at the Savoy [03:03]
16. Fly Me to the Moon [04:01]
Exact Audio Copy V1.0 beta 3 from 29. August 2011

EAC extraction logfile from 26. December 2013, 20:34

Ігор Хома / Ансамбль "Медікус"

Used drive : _NEC DVD_RW ND-3540A Adapter: 3 ID: 0

Read mode : SecureUtilize accurate stream : YesDefeat audio cache : YesMake use of C2 pointers : No

Read offset correction : 48Overread into Lead-In and Lead-Out : NoFill up missing offset samples with silence : YesDelete leading and trailing silent blocks : NoNull samples used in CRC calculations : YesUsed interface : Installed external ASPI interface

Used output format : User Defined EncoderSelected bitrate : 1024 kBit/sQuality : HighAdd ID3 tag : NoCommand line compressor : C:\Program Files\Exact Audio Copy\wavpack.exeAdditional command line options : -hm %source% %dest%

TOC of the extracted CD

Track | Start | Length | Start sector | End sector --------------------------------------------------------- 1 | 0:00.00 | 4:54.02 | 0 | 22051 2 | 4:54.02 | 7:36.70 | 22052 | 56321 3 | 12:30.72 | 5:05.44 | 56322 | 79240 4 | 17:36.41 | 2:38.32 | 79241 | 91122 5 | 20:14.73 | 5:11.60 | 91123 | 114507 6 | 25:26.58 | 5:35.31 | 114508 | 139663 7 | 31:02.14 | 6:25.69 | 139664 | 168607 8 | 37:28.08 | 2:32.19 | 168608 | 180026 9 | 40:00.27 | 5:08.10 | 180027 | 203136 10 | 45:08.37 | 4:49.57 | 203137 | 224868 11 | 49:58.19 | 4:59.42 | 224869 | 247335 12 | 54:57.61 | 2:14.43 | 247336 | 257428 13 | 57:12.29 | 4:21.02 | 257429 | 277005 14 | 61:33.31 | 1:54.20 | 277006 | 285575 15 | 63:27.51 | 3:03.23 | 285576 | 299323 16 | 66:30.74 | 4:01.01 | 299324 | 317399

Range status and errors

Selected range

Filename C:\Temporary Files\NetLab\Igor Khoma - 2009 - Ensemble ''Medicus''\Ігор Хома - Ансамбль ''''Медікус''''.wav

Peak level 100.0 % Extraction speed 2.9 X Range quality 99.9 % Test CRC 799FE752 Copy CRC 799FE752 Copy OK

No errors occurred

AccurateRip summary

Track 1 not present in databaseTrack 2 not present in databaseTrack 3 not present in databaseTrack 4 not present in databaseTrack 5 not present in databaseTrack 6 not present in databaseTrack 7 not present in databaseTrack 8 not present in databaseTrack 9 not present in databaseTrack 10 not present in databaseTrack 11 not present in databaseTrack 12 not present in databaseTrack 13 not present in databaseTrack 14 not present in databaseTrack 15 not present in databaseTrack 16 not present in database

None of the tracks are present in the AccurateRip database

End of status report

---- CUETools DB Plugin V2.1.3

[CTDB TOCID: ggukidpzMCd0_wZKszI09yWXDKA-] disk not present in database, Submit result: ggukidpzMCd0_wZKszI09yWXDKA- has been uploaded
REM GENRE "Jazz"REM DATE 2009REM DISCID E1108810REM COMMENT "ExactAudioCopy v1.0b3"PERFORMER "Ігор Хома"TITLE "Ансамбль ''Медікус''"FILE "Іgor Homa - 2009 - Ansambl'' ''Medіkus''.wv" WAVE TRACK 01 AUDIO TITLE "Nineteenager''s Riff" PERFORMER "Ігор Хома" INDEX 01 00:00:00 TRACK 02 AUDIO TITLE "Полюшко-поле" PERFORMER "Ігор Хома" INDEX 00 04:52:03 INDEX 01 04:54:02 TRACK 03 AUDIO TITLE "Whisper Not" PERFORMER "Ігор Хома" INDEX 00 12:28:73 INDEX 01 12:30:72 TRACK 04 AUDIO TITLE "Tintarella di Luna" PERFORMER "Ігор Хома" INDEX 00 17:34:42 INDEX 01 17:36:41 TRACK 05 AUDIO TITLE "Well, You Needn''t" PERFORMER "Ігор Хома" INDEX 00 20:12:74 INDEX 01 20:14:73 TRACK 06 AUDIO TITLE "Sombrero Sam" PERFORMER "Ігор Хома" INDEX 00 25:24:59 INDEX 01 25:26:58 TRACK 07 AUDIO TITLE "Forest Flower" PERFORMER "Ігор Хома" INDEX 00 31:00:15 INDEX 01 31:02:14 TRACK 08 AUDIO TITLE "A Man and a Woman" PERFORMER "Ігор Хома" INDEX 00 37:26:10 INDEX 01 37:28:08 TRACK 09 AUDIO TITLE "Afternoon Walk" PERFORMER "Ігор Хома" INDEX 00 39:58:28 INDEX 01 40:00:27 TRACK 10 AUDIO TITLE "Половецькі танці" PERFORMER "Ігор Хома" INDEX 00 45:06:38 INDEX 01 45:08:37 TRACK 11 AUDIO TITLE "Carnival" PERFORMER "Ігор Хома" INDEX 00 49:56:20 INDEX 01 49:58:19 TRACK 12 AUDIO TITLE "Живий голос Ігоря Хоми" PERFORMER "Ігор Хома" INDEX 00 54:55:62 INDEX 01 54:57:61 TRACK 13 AUDIO TITLE "Summertime" PERFORMER "Ігор Хома" INDEX 00 57:10:30 INDEX 01 57:12:29 TRACK 14 AUDIO TITLE "Живий голос Ігоря Хоми" PERFORMER "Ігор Хома" INDEX 00 61:31:32 INDEX 01 61:33:31 TRACK 15 AUDIO TITLE "Stompin'' at the Savoy" PERFORMER "Ігор Хома" INDEX 00 63:25:52 INDEX 01 63:27:51 TRACK 16 AUDIO TITLE "Fly Me to the Moon" PERFORMER "Ігор Хома" INDEX 00 66:29:00 INDEX 01 66:30:74


Трекер:  [ 07-Янв-2014 13:19 ]

  

Скачать .torrent

Размер .torrent файла 16 KB


Размер: 386 MB
Хэш (hash) релиза: c3a190359850ff91fbbc29e938bc904d2f5080d7

Еще никто не оставлял запись к записи скачать торрент . Будь первым!

!Обратная связь