Скачать через торрент музыку бесплатно без регистрации torrent

Если у вас наблюдаются проблемы со скриншотами, переходом по ссылками, скачиванием торрентов - проблемы в блокировщике рекламы AdBlock. #хорошегоДня!


Статистика раздачи
Размер:  257 MB   |    Зарегистрирован:  3 года 8 месяцев   |    .torrent скачан:  189 раз   |   
Раздают:  1  
   
Загрузка...
 
Автор Сообщение

Galfimbul

avatar Galfimbul


♦ The Zoot Sims Four - The Innocent Years {1982} ♦

Жанр: Mainstream Jazz
Носитель: CD
Страна-производитель диска: Russia
Год издания: 1999
Издатель (лейбл): Ars Nova
Аудиокодек: FLAC (*.flac)
Тип рипа: tracks+.cue
Битрейт аудио: lossless
Продолжительность: 00:41:50
Источник (релизер): Рип с диска.
Наличие сканов в содержимом раздачи: да

Треклист:

01. I Hear a Rapshody [05:33]
02. Pomme Au Four [06:18]
03. Over The Rainbow [10:55]
04. The Very Thought Of You [06:37]
05. If You Were Mine [06:20]
06. Indian Summer [06:05]
Exact Audio Copy V1.0 beta 3 from 29. August 2011

EAC extraction logfile from 6. January 2014, 14:46

Zoot Sims / The innocent years

Used drive : Optiarc DVD RW AD-5200A Adapter: 0 ID: 0

Read mode : SecureUtilize accurate stream : YesDefeat audio cache : YesMake use of C2 pointers : No

Read offset correction : 48Overread into Lead-In and Lead-Out : NoFill up missing offset samples with silence : YesDelete leading and trailing silent blocks : NoNull samples used in CRC calculations : YesUsed interface : Native Win32 interface for Win NT & 2000Gap handling : Appended to previous track

Used output format : User Defined EncoderSelected bitrate : 128 kBit/sQuality : HighAdd ID3 tag : NoCommand line compressor : C:\Program Files\Exact Audio Copy\Flac\flac.exeAdditional command line options : -V -8 -T "Genre=%genre%" -T "Artist=%artist%" -T "Title=%title%" -T "Album=%albumtitle%" -T "Date=%year%" -T "Tracknumber=%tracknr%" -T "Comment=%comment%" %source%

TOC of the extracted CD

Track | Start | Length | Start sector | End sector --------------------------------------------------------- 1 | 0:00.00 | 5:33.18 | 0 | 24992 2 | 5:33.18 | 6:18.42 | 24993 | 53384 3 | 11:51.60 | 10:55.30 | 53385 | 102539 4 | 22:47.15 | 6:37.70 | 102540 | 132384 5 | 29:25.10 | 6:20.20 | 132385 | 160904 6 | 35:45.30 | 6:05.00 | 160905 | 188279

Track 1

Filename F:\1999.The Zoot Sims Four - The Innocent Years\01. I Hear a Rapshody.wav

Pre-gap length 0:00:02.00

Peak level 93.8 % Extraction speed 2.4 X Track quality 100.0 % Test CRC 5213352B Copy CRC 5213352B Cannot be verified as accurate (confidence 2) [F9115451], AccurateRip returned [5E927925] (AR v2) Copy OK

Track 2

Filename F:\1999.The Zoot Sims Four - The Innocent Years\02. Pomme Au Four.wav

Pre-gap length 0:00:03.20

Peak level 94.9 % Extraction speed 2.8 X Track quality 100.0 % Test CRC B0BAC9E0 Copy CRC B0BAC9E0 Cannot be verified as accurate (confidence 2) [F4DC857B], AccurateRip returned [91D2EB52] (AR v2) Copy OK

Track 3

Filename F:\1999.The Zoot Sims Four - The Innocent Years\03. Over The Rainbow.wav

Pre-gap length 0:00:03.22

Peak level 99.5 % Extraction speed 3.3 X Track quality 100.0 % Test CRC AF4BCBF2 Copy CRC AF4BCBF2 Cannot be verified as accurate (confidence 2) [BB93E6D6], AccurateRip returned [4C19070E] (AR v2) Copy OK

Track 4

Filename F:\1999.The Zoot Sims Four - The Innocent Years\04. The Very Thought Of You.wav

Pre-gap length 0:00:01.72

Peak level 99.8 % Extraction speed 3.5 X Track quality 100.0 % Test CRC 3840D39C Copy CRC 3840D39C Cannot be verified as accurate (confidence 2) [1D283991], AccurateRip returned [CBCF13FC] (AR v2) Copy OK

Track 5

Filename F:\1999.The Zoot Sims Four - The Innocent Years\05. If You Were Mine.wav

Pre-gap length 0:00:02.22

Peak level 94.9 % Extraction speed 3.7 X Track quality 100.0 % Test CRC CC02498A Copy CRC CC02498A Cannot be verified as accurate (confidence 2) [EC53F7C3], AccurateRip returned [F1E1CEDC] (AR v2) Copy OK

Track 6

Filename F:\1999.The Zoot Sims Four - The Innocent Years\06. Indian Summer.wav

Pre-gap length 0:00:01.72

Peak level 99.8 % Extraction speed 3.8 X Track quality 100.0 % Test CRC B2C98167 Copy CRC B2C98167 Cannot be verified as accurate (confidence 2) [A0F9468A], AccurateRip returned [F3E62BCD] (AR v2) Copy OK

No tracks could be verified as accurateYou may have a different pressing from the one(s) in the database

No errors occurred

End of status report

==== Log checksum 2FC0C37AD596DE8D7231326C418B7641DEE9C79F1563AEF1D712F637A64CD570 ====
REM GENRE JazzREM DATE 1982REM DISCID 4E09CE06REM COMMENT "ExactAudioCopy v1.0b3"PERFORMER "Zoot Sims"TITLE "The innocent years"FILE "01. I Hear a Rapshody.wav" WAVE TRACK 01 AUDIO TITLE "I Hear a Rapshody" PERFORMER "Zoot Sims" INDEX 01 00:00:00 TRACK 02 AUDIO TITLE "Pomme Au Four" PERFORMER "Zoot Sims" INDEX 00 05:29:73FILE "02. Pomme Au Four.wav" WAVE INDEX 01 00:00:00 TRACK 03 AUDIO TITLE "Over The Rainbow" PERFORMER "Zoot Sims" INDEX 00 06:15:20FILE "03. Over The Rainbow.wav" WAVE INDEX 01 00:00:00 TRACK 04 AUDIO TITLE "The Very Thought Of You" PERFORMER "Zoot Sims" INDEX 00 10:53:33FILE "04. The Very Thought Of You.wav" WAVE INDEX 01 00:00:00 TRACK 05 AUDIO TITLE "If You Were Mine" PERFORMER "Zoot Sims" INDEX 00 06:35:48FILE "05. If You Were Mine.wav" WAVE INDEX 01 00:00:00 TRACK 06 AUDIO TITLE "Indian Summer" PERFORMER "Zoot Sims" INDEX 00 06:18:23FILE "06. Indian Summer.wav" WAVE INDEX 01 00:00:00
Personnel:

Richard Wyands - piano
Zoot Sims - soprano, tenor sax
Akira Tana - drums
Frank Tate - bass


Трекер:  [ 07-Янв-2014 13:18 ]

  

Скачать .torrent

Размер .torrent файла 11 KB


Размер: 257 MB
Хэш (hash) релиза: ce54522a4b4864a6b7bfae127a777751f5da51a1

Еще никто не оставлял запись к записи скачать торрент . Будь первым!

!Обратная связь