Скачать через торрент музыку Jon Richards - Elysian Fields - 2011, FLAC бесплатно без регистрации torrent

Если у вас наблюдаются проблемы со скриншотами, переходом по ссылками, скачиванием торрентов - проблемы в блокировщике рекламы AdBlock. #хорошегоДня!


Статистика раздачи
Размер:  279 MB   |    Зарегистрирован:  3 года 10 месяцев   |    .torrent скачан:  357 раз   |   
Раздают:  1  
   
Загрузка...
 
Автор Сообщение

Galfimbul

avatar Galfimbul


Jon Richards - Elysian Fields

Жанр: New Age, Meditative
Год издания: 2011
Аудиокодек: FLAC (*.flac)
Тип рипа: image+.cue
Битрейт аудио: lossless
Продолжительность: 01:06:47
Источник (релизер): СЛИМ (Сообщество любителей инструментальной музыки)
Наличие сканов в содержимом раздачи: да
Треклист:
01. Gates of the Sun
02. Asphodel Meadows
03. Tir Na Nog - Part One
04. Crossing the River
05. The White Isle
06. Jade Emporer
07. Tir Na Nog - Part 2
08. Elysian Fields
Exact Audio Copy V1.0 beta 3 from 29. August 2011

Отчёт EAC об извлечении, выполненном 4. января 2014, 20:54

Jon Richards / Elysian Fields

Дисковод: Optiarc DVD RW AD-7191S Adapter: 1 ID: 0

Режим чтения : ДостоверностьИспользование точного потока : ДаОтключение кэша аудио : ДаИспользование указателей C2 : Нет

Коррекция смещения при чтении : 6Способность читать области Lead-in и Lead-out : НетЗаполнение пропущенных сэмплов тишиной : ДаУдаление блоков с тишиной в начале и конце : НетПри вычислениях CRC использовались нулевые сэмплы : ДаИнтерфейс : Встроенный Win32-интерфейс для Win NT/2000

Выходной формат : Пользовательский кодировщикВыбранный битрейт : 128 kBit/sКачество : ВысокийДобавление ID3-тега : НетУтилита сжатия : C:\Program Files\Exact Audio Copy\FLAC\FLAC.EXEДополнительные параметры : -V -8 -T "Date=%year%" -T "Genre=%genre%" %source%

TOC извлечённого CD

Трек | Старт | Длительность | Начальный сектор | Конечный сектор --------------------------------------------------------------------- 1 | 0:00.00 | 6:52.72 | 0 | 30971 2 | 6:52.72 | 7:58.01 | 30972 | 66822 3 | 14:50.73 | 8:12.50 | 66823 | 103772 4 | 23:03.48 | 9:32.73 | 103773 | 146745 5 | 32:36.46 | 7:26.47 | 146746 | 180242 6 | 40:03.18 | 10:44.00 | 180243 | 228542 7 | 50:47.18 | 6:33.27 | 228543 | 258044 8 | 57:20.45 | 9:26.68 | 258045 | 300562

Характеристики диапазона извлечения и сообщения об ошибках

Выбранный диапазон

Имя файла D:\Jon Richards\2011 - Elysian Fields (FLAC)\Jon Richards - Elysian Fields.wav

Пиковый уровень 48.3 % Скорость извлечения 7.4 X Качество диапазона 100.0 % CRC теста 12E6D241 CRC копии 12E6D241 Копирование... OK

Ошибок не произошло

Конец отчёта

==== Контрольная сумма отчёта B7D968E1FEB52E1B3AB794563DD863CB0B485182DAC0F45157CF2657431C237C ====
REM GENRE "New Age"REM DATE 2011REM DISCID 6E0FA708REM COMMENT "ExactAudioCopy v1.0b3"PERFORMER "Jon Richards"TITLE "Elysian Fields"FILE "Jon Richards - Elysian Fields.flac" WAVE TRACK 01 AUDIO TITLE "Gates of the Sun" PERFORMER "Jon Richards" INDEX 01 00:00:00 TRACK 02 AUDIO TITLE "Asphodel Meadows" PERFORMER "Jon Richards" INDEX 01 06:52:72 TRACK 03 AUDIO TITLE "Tir Na Nog - Part One" PERFORMER "Jon Richards" INDEX 01 14:50:73 TRACK 04 AUDIO TITLE "Crossing the River" PERFORMER "Jon Richards" INDEX 01 23:03:48 TRACK 05 AUDIO TITLE "The White Isle" PERFORMER "Jon Richards" INDEX 01 32:36:46 TRACK 06 AUDIO TITLE "Jade Emporer" PERFORMER "Jon Richards" INDEX 01 40:03:18 TRACK 07 AUDIO TITLE "Tir Na Nog - Part 2" PERFORMER "Jon Richards" INDEX 01 50:47:18 TRACK 08 AUDIO TITLE "Elysian Fields" PERFORMER "Jon Richards" INDEX 01 57:20:45
Превосходный и выдающийся дебютный компакт-диск. Свежий, вдохновляющий, наполненный магией ритмов и захватывающих мелодий. Альбом молодого талантливого композитора Джона Ричардса Elysian Fields уводит вас в удивительное путешествие, которое никогда не закончится.

Воспоминания, эфирные звуки, этот альбом является вашим путеводителем по неизведанным мирам за пределами реальности. Вдохновленный разнообразием интерпретаций потусторонней жизни, основанной на мифах и легендах греческого, японского и ирландского народов, альбом "Елисейские поля" плетет уникальное музыкальное полотно, связывая все наши древние верования вместе.


Трекер:  [ 06-Янв-2014 13:59 ]

  

Скачать .torrent

Размер .torrent файла 11 KB


Размер: 279 MB
Хэш (hash) релиза: 81fdba801d534de7ef03dbceda4fa57c4883660d

Еще никто не оставлял запись к записи скачать торрент Jon Richards - Elysian Fields - 2011, FLAC . Будь первым!

!Обратная связь