Скачать через торрент музыку Medwyn Goodall - Earth Healer 2 - 2012, FLAC бесплатно без регистрации torrent

Статистика раздачи
Размер:  279 MB   |    Зарегистрирован:  3 года 1 месяц   |    .torrent скачан:  317 раз   |   
Раздают:  1  
   
 
Автор Сообщение

Galfimbul

avatar Galfimbul


Medwyn Goodall - Earth Healer 2

Жанр: New Age & Meditative
Год издания: 2012
Аудиокодек: FLAC (*.flac)
Тип рипа: image+.cue
Битрейт аудио: lossless
Продолжительность: 00:50:12
Источник (релизер): СЛИМ (Сообщество любителей инструментальной музыки)
Наличие сканов в содержимом раздачи: нет
Треклист:
01. Free Spirit
02. No More Boundaries
03. Sun On My Shoulders
04. Feet in the Grass
05. To the Other Side
06. Only Love Matters
07. Down Spirit Road
08. Watching Stars
Exact Audio Copy V1.0 beta 3 from 29. August 2011

Отчёт EAC об извлечении, выполненном 5. января 2014, 9:31

Medwyn Goodall / Earth Healer 2

Дисковод: Optiarc DVD RW AD-7191S Adapter: 1 ID: 0

Режим чтения : ДостоверностьИспользование точного потока : ДаОтключение кэша аудио : ДаИспользование указателей C2 : Нет

Коррекция смещения при чтении : 6Способность читать области Lead-in и Lead-out : НетЗаполнение пропущенных сэмплов тишиной : ДаУдаление блоков с тишиной в начале и конце : НетПри вычислениях CRC использовались нулевые сэмплы : ДаИнтерфейс : Встроенный Win32-интерфейс для Win NT/2000

Выходной формат : Пользовательский кодировщикВыбранный битрейт : 128 kBit/sКачество : ВысокийДобавление ID3-тега : НетУтилита сжатия : C:\Program Files\Exact Audio Copy\FLAC\FLAC.EXEДополнительные параметры : -V -8 -T "Date=%year%" -T "Genre=%genre%" %source%

TOC извлечённого CD

Трек | Старт | Длительность | Начальный сектор | Конечный сектор --------------------------------------------------------------------- 1 | 0:00.00 | 6:18.00 | 0 | 28349 2 | 6:18.00 | 7:12.00 | 28350 | 60749 3 | 13:30.00 | 6:16.00 | 60750 | 88949 4 | 19:46.00 | 7:30.00 | 88950 | 122699 5 | 27:16.00 | 6:46.00 | 122700 | 153149 6 | 34:02.00 | 5:46.26 | 153150 | 179125 7 | 39:48.26 | 5:48.00 | 179126 | 205225 8 | 45:36.26 | 4:36.00 | 205226 | 225925

Характеристики диапазона извлечения и сообщения об ошибках

Выбранный диапазон

Имя файла D:\Medwyn Goodall\FLAC\2012 - Earth Healer 2\Medwyn Goodall - Earth Healer 2.wav

Пиковый уровень 90.9 % Скорость извлечения 7.1 X Качество диапазона 100.0 % CRC теста 3925DD41 CRC копии 3925DD41 Копирование... OK

Ошибок не произошло

Конец отчёта

==== Контрольная сумма отчёта CD22F69FD9F0CFA06C66082D2635C6423C8FC91D1F8F5E0CFEDE4B49C12550EA ====
REM GENRE "New Age"REM DATE 2012REM DISCID 680BC408REM COMMENT "ExactAudioCopy v1.0b3"PERFORMER "Medwyn Goodall"TITLE "Earth Healer 2"FILE "Medwyn Goodall - Earth Healer 2.flac" WAVE TRACK 01 AUDIO TITLE "Free Spirit" PERFORMER "Medwyn Goodall" INDEX 01 00:00:00 TRACK 02 AUDIO TITLE "No More Bondaries" PERFORMER "Medwyn Goodall" INDEX 01 06:18:00 TRACK 03 AUDIO TITLE "Sun On My Shoulders" PERFORMER "Medwyn Goodall" INDEX 01 13:30:00 TRACK 04 AUDIO TITLE "Feet in the Grass" PERFORMER "Medwyn Goodall" INDEX 01 19:46:00 TRACK 05 AUDIO TITLE "To the Other Side" PERFORMER "Medwyn Goodall" INDEX 01 27:16:00 TRACK 06 AUDIO TITLE "Only Love Matters" PERFORMER "Medwyn Goodall" INDEX 01 34:02:00 TRACK 07 AUDIO TITLE "Down Spirit Road" PERFORMER "Medwyn Goodall" INDEX 01 39:48:26 TRACK 08 AUDIO TITLE "Watching Stars" PERFORMER "Medwyn Goodall" INDEX 01 45:36:26


Трекер:  [ 06-Янв-2014 13:59 ]

  

Скачать .torrent

Размер .torrent файла 11 KB


Размер: 279 MB
Хэш (hash) релиза: 287fe7cbeb557f6eb8799cfd823f150359d0a452

Еще никто не оставлял запись к записи скачать торрент Medwyn Goodall - Earth Healer 2 - 2012, FLAC . Будь первым!

!Обратная связь