Скачать через торрент музыку бесплатно без регистрации torrent

Если у вас наблюдаются проблемы со скриншотами, переходом по ссылками, скачиванием торрентов - проблемы в блокировщике рекламы AdBlock. #хорошегоДня!


Статистика раздачи
Размер:  382 MB   |    Зарегистрирован:  3 года 8 месяцев   |    .torrent скачан:  248 раз   |   
Раздают:  1  
   
Загрузка...
 
Автор Сообщение

Galfimbul

avatar Galfimbul


♦ George Benson - Jazz Cafe Presents ♦

Жанр: Hard Bop, Post-Bop, Guitar Jazz
Носитель: CD
Страна-производитель диска: Ukraine
Год издания: 2007
Издатель (лейбл): Астра Рекордс / Galaxy Music
Аудиокодек: WavPack (*.wv)
Тип рипа: image+.cue
Битрейт аудио: lossless
Продолжительность: 01:13:11
Источник (релизер): worand
Наличие сканов в содержимом раздачи: да

Треклист:

01. Blue Bossa [10:34]
02. Little Darlin [11:09]
03. Love Walked In [06:44]
04. Dahlia''s Delight [13:30]
05. The Masquerade Is Over (I''m Afraid) [09:29]
06. There Will Be Another You [10:51]
07. Invitations [10:52]
Exact Audio Copy V1.0 beta 3 from 29. August 2011

EAC extraction logfile from 5. January 2014, 17:47

George Benson / Jazz Cafe Presents

Used drive : TSSTcorpCDDVDW SH-222BB Adapter: 3 ID: 1

Read mode : SecureUtilize accurate stream : YesDefeat audio cache : YesMake use of C2 pointers : No

Read offset correction : 6Overread into Lead-In and Lead-Out : NoFill up missing offset samples with silence : YesDelete leading and trailing silent blocks : NoNull samples used in CRC calculations : YesUsed interface : Installed external ASPI interface

Used output format : User Defined EncoderSelected bitrate : 1024 kBit/sQuality : HighAdd ID3 tag : NoCommand line compressor : C:\Program Files (x86)\Exact Audio Copy\wavpack.exeAdditional command line options : -hm %source% %dest%

TOC of the extracted CD

Track | Start | Length | Start sector | End sector --------------------------------------------------------- 1 | 0:00.00 | 10:34.17 | 0 | 47566 2 | 10:34.17 | 11:09.38 | 47567 | 97779 3 | 21:43.55 | 6:44.50 | 97780 | 128129 4 | 28:28.30 | 13:30.02 | 128130 | 188881 5 | 41:58.32 | 9:29.48 | 188882 | 231604 6 | 51:28.05 | 10:51.02 | 231605 | 280431 7 | 62:19.07 | 10:52.65 | 280432 | 329396

Range status and errors

Selected range

Filename F:\NetLab\George Benson - Jazz Cafe Presents\George Benson - Jazz Cafe Presents.wav

Peak level 100.0 % Extraction speed 7.9 X Range quality 100.0 % Test CRC 3C5A7D94 Copy CRC 3C5A7D94 Copy OK

No errors occurred

AccurateRip summary

Track 1 cannot be verified as accurate (confidence 1) [5B51CAD8], AccurateRip returned [24B59136] (AR v2)Track 2 cannot be verified as accurate (confidence 1) [6E8CA49B], AccurateRip returned [7ED0CA85] (AR v2)Track 3 cannot be verified as accurate (confidence 1) [5F5BA1F5], AccurateRip returned [89A913A4] (AR v2)Track 4 cannot be verified as accurate (confidence 1) [B904DA35], AccurateRip returned [7D68244C] (AR v2)Track 5 cannot be verified as accurate (confidence 1) [D081FE66], AccurateRip returned [95872DA4] (AR v2)Track 6 cannot be verified as accurate (confidence 1) [16AA53B1], AccurateRip returned [0A6271F8] (AR v2)Track 7 cannot be verified as accurate (confidence 1) [D44EA84D], AccurateRip returned [EE774203] (AR v2)

No tracks could be verified as accurateYou may have a different pressing from the one(s) in the database

End of status report
REM GENRE "Jazz"REM DATE 2001REM DISCID 47112707REM COMMENT "ExactAudioCopy v1.0b3"PERFORMER "George Benson"TITLE "Jazz Cafe Presents"FILE "George Benson - 2001 - Jazz Cafe Presents.wv" WAVE TRACK 01 AUDIO TITLE "Blue Bossa" PERFORMER "George Benson" INDEX 01 00:00:00 TRACK 02 AUDIO TITLE "Little Darlin" PERFORMER "George Benson" INDEX 00 10:31:20 INDEX 01 10:34:17 TRACK 03 AUDIO TITLE "Love Walked In" PERFORMER "George Benson" INDEX 00 21:41:60 INDEX 01 21:43:55 TRACK 04 AUDIO TITLE "Dahlia''s Delight" PERFORMER "George Benson" INDEX 00 28:25:42 INDEX 01 28:28:30 TRACK 05 AUDIO TITLE "The Masquerade Is Over (I''m Afraid)" PERFORMER "George Benson" INDEX 00 41:55:52 INDEX 01 41:58:32 TRACK 06 AUDIO TITLE "There Will Be Another You" PERFORMER "George Benson" INDEX 00 51:25:70 INDEX 01 51:28:05 TRACK 07 AUDIO TITLE "Invitations" PERFORMER "George Benson" INDEX 00 62:16:20 INDEX 01 62:19:07


Трекер:  [ 06-Янв-2014 12:54 ]

  

Скачать .torrent

Размер .torrent файла 16 KB


Размер: 382 MB
Хэш (hash) релиза: 580dbe1ec20dbe7519a010c28c45be770c449ea0

Еще никто не оставлял запись к записи скачать торрент . Будь первым!

!Обратная связь