Скачать через торрент музыку бесплатно без регистрации torrent

Если у вас наблюдаются проблемы со скриншотами, переходом по ссылками, скачиванием торрентов - проблемы в блокировщике рекламы AdBlock. #хорошегоДня!


Статистика раздачи
Размер:  347 MB   |    Зарегистрирован:  3 года 8 месяцев   |    .torrent скачан:  94 раза   |   
Раздают:  1  
   
Загрузка...
 
Автор Сообщение

Galfimbul

avatar Galfimbul


♦ Zoot Sims - Tenorly {1950/1953} ♦

Жанр: Mainstream Jazz, Cool
Носитель: CD
Страна-производитель диска: Germany
Год издания: 1993
Издатель (лейбл): Disques Vogue
Номер по каталогу: 74321134132
Аудиокодек: FLAC (*.flac)
Тип рипа: tracks+.cue
Битрейт аудио: lossless
Продолжительность: 01:05:16
Источник (релизер): Рип с диска.
Наличие сканов в содержимом раздачи: да

Треклист:

01. Night And Day, Take 1 [02:58]
02. Night And Day, Take 2 [02:58]
03. Night And Day, Take 3 [02:58]
04. Slingin'' Hasch, Take 1 [03:20]
05. Slingin'' Hasch, Take 2 [03:30]
06. Tenorly, Take 1 [02:48]
07. Tenorly, Take 2 [02:50]
08. Tenorly, Take 3 [02:47]
09. Zoot And Zoot [03:21]
10. I Understand, Take 1 [03:41]
11. I Understand, Take 2 [03:33]
12. Don''t Worry About Me [03:08]
13. Crystal [03:13]
14. Toot''s Suite [05:52]
15. The Late Tiny Kahn [04:27]
16. Call It Anything [03:18]
17. Zoot''s Suite [04:12]
18. Once A While [03:32]
19. Great Drums [02:42]
Exact Audio Copy V1.0 beta 3 from 29. August 2011

EAC extraction logfile from 5. January 2014, 12:16

Zoot Sims / Tenorly

Used drive : Optiarc DVD RW AD-5200A Adapter: 0 ID: 0

Read mode : SecureUtilize accurate stream : YesDefeat audio cache : YesMake use of C2 pointers : No

Read offset correction : 48Overread into Lead-In and Lead-Out : NoFill up missing offset samples with silence : YesDelete leading and trailing silent blocks : NoNull samples used in CRC calculations : YesUsed interface : Native Win32 interface for Win NT & 2000Gap handling : Appended to previous track

Used output format : User Defined EncoderSelected bitrate : 128 kBit/sQuality : HighAdd ID3 tag : NoCommand line compressor : C:\Program Files\Exact Audio Copy\Flac\flac.exeAdditional command line options : -V -8 -T "Genre=%genre%" -T "Artist=%artist%" -T "Title=%title%" -T "Album=%albumtitle%" -T "Date=%year%" -T "Tracknumber=%tracknr%" -T "Comment=%comment%" %source%

TOC of the extracted CD

Track | Start | Length | Start sector | End sector --------------------------------------------------------- 1 | 0:00.32 | 2:58.30 | 32 | 13411 2 | 2:58.62 | 2:58.05 | 13412 | 26766 3 | 5:56.67 | 2:58.65 | 26767 | 40181 4 | 8:55.57 | 3:20.00 | 40182 | 55181 5 | 12:15.57 | 3:30.70 | 55182 | 71001 6 | 15:46.52 | 2:48.08 | 71002 | 83609 7 | 18:34.60 | 2:50.37 | 83610 | 96396 8 | 21:25.22 | 2:47.43 | 96397 | 108964 9 | 24:12.65 | 3:21.50 | 108965 | 124089 10 | 27:34.40 | 3:41.05 | 124090 | 140669 11 | 31:15.45 | 3:33.67 | 140670 | 156711 12 | 34:49.37 | 3:08.43 | 156712 | 170854 13 | 37:58.05 | 3:13.20 | 170855 | 185349 14 | 41:11.25 | 5:52.20 | 185350 | 211769 15 | 47:03.45 | 4:27.42 | 211770 | 231836 16 | 51:31.12 | 3:18.25 | 231837 | 246711 17 | 54:49.37 | 4:12.18 | 246712 | 265629 18 | 59:01.55 | 3:32.62 | 265630 | 281591 19 | 62:34.42 | 2:42.63 | 281592 | 293804

Track 1

Filename F:\1993.Zoot Sims - Tenorly\01. Zoot Sims Quartet - Night And Day, Take 1.wav

Pre-gap length 0:00:02.32

Peak level 74.8 % Extraction speed 2.2 X Track quality 100.0 % Test CRC BD10229B Copy CRC BD10229B Cannot be verified as accurate (confidence 1) [3FC6A640], AccurateRip returned [82D33C0F] (AR v2) Copy OK

Track 2

Filename F:\1993.Zoot Sims - Tenorly\02. Zoot Sims Quartet - Night And Day, Take 2.wav

Peak level 73.4 % Extraction speed 2.3 X Track quality 100.0 % Test CRC D797225F Copy CRC D797225F Cannot be verified as accurate (confidence 1) [A9E5DE0D], AccurateRip returned [F576DE06] (AR v2) Copy OK

Track 3

Filename F:\1993.Zoot Sims - Tenorly\03. Zoot Sims Quartet - Night And Day, Take 3.wav

Peak level 62.9 % Extraction speed 2.5 X Track quality 100.0 % Test CRC CCDC43C3 Copy CRC CCDC43C3 Cannot be verified as accurate (confidence 1) [E38538E0], AccurateRip returned [80A1485F] (AR v2) Copy OK

Track 4

Filename F:\1993.Zoot Sims - Tenorly\04. Zoot Sims Quartet - Slingin'' Hasch, Take 1.wav

Peak level 75.0 % Extraction speed 2.7 X Track quality 100.0 % Test CRC 1F8A3365 Copy CRC 1F8A3365 Cannot be verified as accurate (confidence 1) [5FBB504D], AccurateRip returned [0031EA8C] (AR v2) Copy OK

Track 5

Filename F:\1993.Zoot Sims - Tenorly\05. Zoot Sims Quartet - Slingin'' Hasch, Take 2.wav

Peak level 84.7 % Extraction speed 2.9 X Track quality 100.0 % Test CRC 8E94E037 Copy CRC 8E94E037 Cannot be verified as accurate (confidence 1) [DE2A0ADF], AccurateRip returned [017F2BCB] (AR v2) Copy OK

Track 6

Filename F:\1993.Zoot Sims - Tenorly\06. Zoot Sims Quartet - Tenorly, Take 1.wav

Peak level 65.3 % Extraction speed 2.9 X Track quality 100.0 % Test CRC E6991378 Copy CRC E6991378 Cannot be verified as accurate (confidence 1) [9D96C7D5], AccurateRip returned [A9D495C1] (AR v2) Copy OK

Track 7

Filename F:\1993.Zoot Sims - Tenorly\07. Zoot Sims Quartet - Tenorly, Take 2.wav

Peak level 79.8 % Extraction speed 3.0 X Track quality 100.0 % Test CRC 96F6B7FC Copy CRC 96F6B7FC Cannot be verified as accurate (confidence 1) [DFD92FA2], AccurateRip returned [3FA547C6] (AR v2) Copy OK

Track 8

Filename F:\1993.Zoot Sims - Tenorly\08. Zoot Sims Quartet - Tenorly, Take 3.wav

Peak level 87.0 % Extraction speed 3.1 X Track quality 100.0 % Test CRC A4FDC9BF Copy CRC A4FDC9BF Cannot be verified as accurate (confidence 1) [A265922A], AccurateRip returned [DABF1F85] (AR v2) Copy OK

Track 9

Filename F:\1993.Zoot Sims - Tenorly\09. Zoot Sims Quartet - Zoot And Zoot.wav

Peak level 73.4 % Extraction speed 3.3 X Track quality 100.0 % Test CRC 76242F8E Copy CRC 76242F8E Cannot be verified as accurate (confidence 1) [C1190C17], AccurateRip returned [81EE8AF4] (AR v2) Copy OK

Track 10

Filename F:\1993.Zoot Sims - Tenorly\10. Zoot Sims Quartet - I Understand, Take 1.wav

Peak level 64.8 % Extraction speed 3.0 X Track quality 99.9 % Test CRC 75F4DCA9 Copy CRC 75F4DCA9 Cannot be verified as accurate (confidence 1) [DA4C6EF1], AccurateRip returned [411640BA] (AR v2) Copy OK

Track 11

Filename F:\1993.Zoot Sims - Tenorly\11. Zoot Sims Quartet - I Understand, Take 2.wav

Peak level 57.1 % Extraction speed 3.5 X Track quality 100.0 % Test CRC 38040B34 Copy CRC 38040B34 Cannot be verified as accurate (confidence 1) [F5BD9469], AccurateRip returned [D354BD58] (AR v2) Copy OK

Track 12

Filename F:\1993.Zoot Sims - Tenorly\12. Zoot Sims Quartet - Don''t Worry About Me.wav

Peak level 76.2 % Extraction speed 3.0 X Track quality 99.9 % Test CRC 1F85B0D0 Copy CRC 1F85B0D0 Cannot be verified as accurate (confidence 1) [B18A1EE5], AccurateRip returned [9116F31B] (AR v2) Copy OK

Track 13

Filename F:\1993.Zoot Sims - Tenorly\13. Zoot Sims Quartet - Crystal.wav

Peak level 79.2 % Extraction speed 3.5 X Track quality 100.0 % Test CRC 7AC9BDC9 Copy CRC 7AC9BDC9 Cannot be verified as accurate (confidence 1) [1FD690AC], AccurateRip returned [A8490074] (AR v2) Copy OK

Track 14

Filename F:\1993.Zoot Sims - Tenorly\14. Zoot Sims Sextet - Toot''s Suite.wav

Peak level 58.3 % Extraction speed 3.5 X Track quality 99.9 % Test CRC 77678B51 Copy CRC 77678B51 Cannot be verified as accurate (confidence 1) [EF0F6374], AccurateRip returned [D5EE359C] (AR v2) Copy OK

Track 15

Filename F:\1993.Zoot Sims - Tenorly\15. Zoot Sims Sextet - The Late Tiny Kahn.wav

Peak level 52.2 % Extraction speed 3.3 X Track quality 99.9 % Test CRC B6AD6F82 Copy CRC B6AD6F82 Cannot be verified as accurate (confidence 1) [D13A3725], AccurateRip returned [B1177E57] (AR v2) Copy OK

Track 16

Filename F:\1993.Zoot Sims - Tenorly\16. Zoot Sims Sextet - Call It Anything.wav

Peak level 60.5 % Extraction speed 3.5 X Track quality 100.0 % Test CRC A54DEEEB Copy CRC A54DEEEB Cannot be verified as accurate (confidence 1) [A25BBB88], AccurateRip returned [284F3D0B] (AR v2) Copy OK

Track 17

Filename F:\1993.Zoot Sims - Tenorly\17. Zoot Sims Sextet - Zoot''s Suite.wav

Peak level 51.2 % Extraction speed 3.6 X Track quality 100.0 % Test CRC 6014CF60 Copy CRC 6014CF60 Cannot be verified as accurate (confidence 1) [716FD5D0], AccurateRip returned [EEA558FE] (AR v2) Copy OK

Track 18

Filename F:\1993.Zoot Sims - Tenorly\18. Zoot Sims Sextet - Once A While.wav

Peak level 47.8 % Extraction speed 3.2 X Track quality 99.9 % Test CRC 244A99A1 Copy CRC 244A99A1 Cannot be verified as accurate (confidence 1) [BC5C1AB8], AccurateRip returned [38DA97B5] (AR v2) Copy OK

Track 19

Filename F:\1993.Zoot Sims - Tenorly\19. Zoot Sims Sextet - Great Drums.wav

Peak level 54.4 % Extraction speed 3.4 X Track quality 100.0 % Test CRC FD29C80F Copy CRC FD29C80F Cannot be verified as accurate (confidence 1) [7D762F57], AccurateRip returned [4136CE28] (AR v2) Copy OK

No tracks could be verified as accurateYou may have a different pressing from the one(s) in the database

No errors occurred

End of status report

==== Log checksum C4AFFD7592D65ACF4342A7C2F9F85AD63545FB8C20602ED460BEE31A75E55CB5 ====
REM GENRE JazzREM DATE 1993REM DISCID 1E0F4D13REM COMMENT "ExactAudioCopy v1.0b3"CATALOG 3072666001179PERFORMER "Zoot Sims "TITLE "Tenorly"FILE "01. Zoot Sims Quartet - Night And Day, Take 1.wav" WAVE TRACK 01 AUDIO TITLE "Night And Day, Take 1" PERFORMER "Zoot Sims Quartet" PREGAP 00:00:32 INDEX 01 00:00:00FILE "02. Zoot Sims Quartet - Night And Day, Take 2.wav" WAVE TRACK 02 AUDIO TITLE "Night And Day, Take 2" PERFORMER "Zoot Sims Quartet" INDEX 01 00:00:00FILE "03. Zoot Sims Quartet - Night And Day, Take 3.wav" WAVE TRACK 03 AUDIO TITLE "Night And Day, Take 3" PERFORMER "Zoot Sims Quartet" INDEX 01 00:00:00FILE "04. Zoot Sims Quartet - Slingin'' Hasch, Take 1.wav" WAVE TRACK 04 AUDIO TITLE "Slingin'' Hasch, Take 1" PERFORMER "Zoot Sims Quartet" INDEX 01 00:00:00FILE "05. Zoot Sims Quartet - Slingin'' Hasch, Take 2.wav" WAVE TRACK 05 AUDIO TITLE "Slingin'' Hasch, Take 2" PERFORMER "Zoot Sims Quartet" INDEX 01 00:00:00FILE "06. Zoot Sims Quartet - Tenorly, Take 1.wav" WAVE TRACK 06 AUDIO TITLE "Tenorly, Take 1" PERFORMER "Zoot Sims Quartet" INDEX 01 00:00:00FILE "07. Zoot Sims Quartet - Tenorly, Take 2.wav" WAVE TRACK 07 AUDIO TITLE "Tenorly, Take 2" PERFORMER "Zoot Sims Quartet" INDEX 01 00:00:00FILE "08. Zoot Sims Quartet - Tenorly, Take 3.wav" WAVE TRACK 08 AUDIO TITLE "Tenorly, Take 3" PERFORMER "Zoot Sims Quartet" INDEX 01 00:00:00FILE "09. Zoot Sims Quartet - Zoot And Zoot.wav" WAVE TRACK 09 AUDIO TITLE "Zoot And Zoot" PERFORMER "Zoot Sims Quartet" INDEX 01 00:00:00FILE "10. Zoot Sims Quartet - I Understand, Take 1.wav" WAVE TRACK 10 AUDIO TITLE "I Understand, Take 1" PERFORMER "Zoot Sims Quartet" INDEX 01 00:00:00FILE "11. Zoot Sims Quartet - I Understand, Take 2.wav" WAVE TRACK 11 AUDIO TITLE "I Understand, Take 2" PERFORMER "Zoot Sims Quartet" INDEX 01 00:00:00FILE "12. Zoot Sims Quartet - Don''t Worry About Me.wav" WAVE TRACK 12 AUDIO TITLE "Don''t Worry About Me" PERFORMER "Zoot Sims Quartet" INDEX 01 00:00:00FILE "13. Zoot Sims Quartet - Crystal.wav" WAVE TRACK 13 AUDIO TITLE "Crystal" PERFORMER "Zoot Sims Quartet" INDEX 01 00:00:00FILE "14. Zoot Sims Sextet - Toot''s Suite.wav" WAVE TRACK 14 AUDIO TITLE "Toot''s Suite" PERFORMER "Zoot Sims Sextet" INDEX 01 00:00:00FILE "15. Zoot Sims Sextet - The Late Tiny Kahn.wav" WAVE TRACK 15 AUDIO TITLE "The Late Tiny Kahn" PERFORMER "Zoot Sims Sextet" INDEX 01 00:00:00FILE "16. Zoot Sims Sextet - Call It Anything.wav" WAVE TRACK 16 AUDIO TITLE "Call It Anything" PERFORMER "Zoot Sims Sextet" INDEX 01 00:00:00FILE "17. Zoot Sims Sextet - Zoot''s Suite.wav" WAVE TRACK 17 AUDIO TITLE "Zoot''s Suite" PERFORMER "Zoot Sims Sextet" INDEX 01 00:00:00FILE "18. Zoot Sims Sextet - Once A While.wav" WAVE TRACK 18 AUDIO TITLE "Once A While" PERFORMER "Zoot Sims Sextet" INDEX 01 00:00:00FILE "19. Zoot Sims Sextet - Great Drums.wav" WAVE TRACK 19 AUDIO TITLE "Great Drums" PERFORMER "Zoot Sims Sextet" INDEX 01 00:00:00
Zoot Sims - ts
Gerry Wiggins - p
Pierre Michelot - b
Kenny Clarke - dr
Frank Rosolino - tb (14-19)
Henri Renauld - p (14-19)
Jimmy Gourley - g (14-19)
Don Bagley - b (14-19)
Jean-Louis Viale - dr (14-19)


Трекер:  [ 06-Янв-2014 12:53 ]

  

Скачать .torrent

Размер .torrent файла 16 KB


Размер: 347 MB
Хэш (hash) релиза: 184826918aa86f28b5c990b9f9881bc7328ea4a8

Еще никто не оставлял запись к записи скачать торрент . Будь первым!

!Обратная связь