Скачать через торрент музыку бесплатно без регистрации torrent

Если у вас наблюдаются проблемы со скриншотами, переходом по ссылками, скачиванием торрентов - проблемы в блокировщике рекламы AdBlock. #хорошегоДня!


Статистика раздачи
Размер:  4.64 GB   |    Зарегистрирован:  3 года 8 месяцев   |    .torrent скачан:  177 раз   |   
Раздают:  1  
   
Загрузка...
 
Автор Сообщение

Galfimbul

avatar Galfimbul


G.F.Händel – TELDEC Special Edition: 300 Jahre G.F. Händel, Folge 5 - Orchesterkonzerte (N.Harnoncourt & Concentus Musicys Wien) - 1985

Жанр: Classical, Baroque
Год выпуска: 1985
Лейбл: TELDEC – 6.48225 DMM
Страна-производитель: Germany
Аудио кодек: FLAC
Тип рипа: image+.cue
Формат записи: 24/192
Формат раздачи: 24/192
Продолжительность: 01:12:58 и 00:46:56

Leitung: Nikolaus Harnoncourt
Orchester: Concentus Musicys Wien

Юбилейное аудиофильское (Special Edition) издание TELDEC (Telefunken-Decca), посвященное 300-летию Георга Фридриха Генделя, выпущенное ограниченным тиражем. Представляет собой компиляцию произведений, записанных Венским ансамблем барочной музыки под управлением Николауса Арнонкура в период с 1974 по 1985 год.

Треклист:

LP1
A1 Allemande
A2 Grave
A3 Andante Allegro
A4 Adagio
A5 Siciliana
A6 Allegro
A7 Largo
A8 Allegro
A9 Larghetto
A10 Allegro
A11 Menuet
A12 Gigue
A13 Ouverture (Grave Andante/Allegro)
A14 Air: Lent
B1 Allegro
B2 Allegro
B3 Allegro Moderato
B4 Andante Larghetto E Staccato
B5 Allegro
B6 Largo E Staccato
B7 Andante
B8 Allegro
B9 Largo
B10 Allegro
B11 Aria: Larghetto E Piano
B12 Largo
B13 Allegro
LP2
C1 Larghetto
C2 Allegro
C3 Organo ad libitum ex A
C4 Larghetto
C5 Allegro
HERBERT TACHEZI, Orgel
C6 Adagio
C7 Allegro
C8 Largo
C9 Allegro
LEOPOLD STASTNY, Flute traversiere
D1 Grave
D2 Allegro
D3 Sarabande, Largo
D4 Allegro
JURG SCHAEFTLEIN, Oboe
D5 Con contento
D6 Allegro
D7 Largo
D8 Allegro
D8 Largo
D9 Allegro
D10 Largo
D11 Allegro
Внимание! Время звучания первого диска на полчаса больше обычного - 1 час 13 минут. Соответственно размер файла около 3 GB.
Источник оцифровки: оцифровано Crimson74
Код класса состояния винила: Good
Устройство воспроизведения: Technics SP-10 MK2
Головка звукоснимателя: Audio Technica ML180
Предварительный усилитель: Kora 3T SE MM
АЦП: Edirol R-44
Обработка: ручная чистка в паузах и тихих местах
foobar2000 1.1.8 / Dynamic Range Meter 1.1.1
log date: 2014-01-05 15:09:38

--------------------------------------------------------------------------------
Analyzed: Nikolaus Harnoncourt & Concentus Musicys Wien / 300 Jahre G.F. Haendel, Folge 5 - Orchesterkonzerte
--------------------------------------------------------------------------------

DR Peak RMS Duration Track
--------------------------------------------------------------------------------
DR14 -3.04 dB -23.32 dB 7:34 01-Concerto Grosso VIII C-moll, Op.6 Nr.8 - 1) Allemande
DR14 -4.98 dB -26.13 dB 1:18 02-2) Grave
DR13 -5.72 dB -24.24 dB 2:11 03-3) Andante Allegro
DR12 -10.54 dB -26.67 dB 1:10 04-4) Adagio
DR13 -7.42 dB -25.12 dB 3:59 05-5) Siciliana
DR13 -5.24 dB -20.70 dB 1:28 06-6) Allegro
DR13 -6.05 dB -24.03 dB 1:14 07-Concerto Grosso IX F-dur, Op.6 Nr.9 - 1) Largo
DR14 -4.65 dB -23.72 dB 3:42 08-2) Allegro
DR12 -10.18 dB -25.88 dB 2:34 09-3) Larghetto
DR14 -3.57 dB -21.91 dB 2:08 10-4) Allegro
DR13 -5.28 dB -22.99 dB 1:10 11-5) Menuet
DR13 -6.52 dB -22.26 dB 2:02 12-6) Gigue
DR13 -5.67 dB -23.26 dB 4:04 13-Concerto Grosso X D-moll, Op.6 Nr.1 - 1) Ouverture (Grave Andante/Allegro)
DR13 -8.95 dB -29.12 dB 3:48 14-2) Air: Lent
DR14 -7.11 dB -25.06 dB 2:12 15-3) Allegro
DR14 -4.48 dB -23.33 dB 3:25 16-4) Allegro
DR13 -7.53 dB -26.79 dB 1:28 17-5) Allegro Moderato
DR15 -4.01 dB -24.60 dB 4:43 18-Concerto Grosso XI A-dur, Op.6 Nr.11 - 1) Andante Larghetto E Staccato
DR12 -3.21 dB -22.18 dB 1:44 19-2) Allegro
DR14 -2.94 dB -22.52 dB 0:34 20-3) Largo E Staccato
DR13 -4.25 dB -22.61 dB 3:40 21-4) Andante
DR14 -3.03 dB -22.39 dB 6:11 22-5) Allegro
DR16 -2.85 dB -24.12 dB 2:13 23-Concerto Grosso XII H-moll, Op.6 Nr.12 - 1) Largo
DR13 -3.35 dB -20.09 dB 2:55 24-2) Allegro
DR12 -2.85 dB -20.50 dB 2:35 25-3) Aria: Larghetto E Piano
DR10 -12.70 dB -28.22 dB 0:41 26-4) Largo
DR12 -4.27 dB -20.84 dB 2:15 27-5) Allegro
DR13 -6.06 dB -22.56 dB 2:11 28-Concerto F-dur fur Orgel, 2 Oboen, Streichcr und B.c. - 1) Larghetto
DR15 -2.85 dB -24.17 dB 3:26 29-2) Allegro
DR10 -11.41 dB -26.54 dB 1:08 30-3) Organo ad libitum ex A
DR12 -12.35 dB -29.75 dB 3:15 31-4) Larghetto
DR12 -3.07 dB -21.04 dB 3:12 32-5) Allegro
DR13 -5.01 dB -21.51 dB 2:15 33-Concerto d-moll fur Floete, Violine, Violoncello und B.c. - 1) Adagio
DR11 -3.75 dB -21.40 dB 1:35 34-2) Allegro
DR10 -8.96 dB -24.03 dB 1:13 35-3) Largo
DR12 -5.98 dB -22.15 dB 3:07 36-4) Allegro
DR12 -3.91 dB -20.51 dB 2:43 37-Concerto g-moll fur Oboe, Streicher und B.c. - 1) Grave
DR13 -4.41 dB -20.69 dB 1:57 38-2) Allegro
DR12 -5.51 dB -20.48 dB 2:17 39-3) Sarabande, Largo
DR12 -4.71 dB -21.39 dB 2:03 40-4) Allegro
DR12 -5.49 dB -24.10 dB 1:46 41-Concerto D-dur fur 2 Violinen, Violoncello und B.c. - 1) Con contento
DR12 -5.53 dB -21.75 dB 1:37 42-2) Allegro
DR12 -9.49 dB -25.28 dB 1:30 43-3) Largo
DR12 -2.85 dB -19.87 dB 1:06 44-4) Allegro
DR13 -4.33 dB -21.16 dB 1:49 45-Concerto grosso IV b F-dur, op.3 Nr.4b - 1) Largo
DR13 -3.74 dB -21.84 dB 3:21 46-2) Allegro
DR12 -8.84 dB -24.56 dB 3:18 47-3) Largo
DR14 -4.36 dB -22.26 dB 2:07 48-4) Allegro
--------------------------------------------------------------------------------

Number of tracks: 48
Official DR value: DR13

Samplerate: 192000 Hz
Channels: 2
Bits per sample: 24
Bitrate: 5394 kbps
Codec: FLAC
================================================================================
В раздаче присутствуют файлы сэмплов. И настоятельно рекомендуется распаковать flac.


Трекер:  [ 05-Янв-2014 18:37 ]

  

Скачать .torrent

Размер .torrent файла 13 KB


Размер: 4.64 GB
Хэш (hash) релиза: 90dccc16dedd0348d3a184ead8ea256ba0c2543e

Еще никто не оставлял запись к записи скачать торрент . Будь первым!

!Обратная связь